<?xml version="1.0" standalone="no"?>
<!DOCTYPE svg PUBLIC "-//W3C//DTD SVG 1.1//EN" "http://www.w3.org/Graphics/SVG/1.1/DTD/svg11.dtd" >
<svg xmlns="http://www.w3.org/2000/svg">
<metadata>Generated by IcoMoon</metadata>
<defs>
<font id="flaticon" horiz-adv-x="512">
<font-face units-per-em="512" ascent="480" descent="-32" />
<missing-glyph horiz-adv-x="512" />
<glyph unicode="&#x20;" d="" horiz-adv-x="256" />
<glyph unicode="&#xe000;" d="M256 112.472c-6.851 0-13.701 2.616-18.923 7.834l-164.347 164.352c-10.455 10.455-10.455 27.402 0 37.852 10.45 10.45 27.397 10.45 37.852 0l145.418-145.423 145.418 145.418c10.455 10.45 27.402 10.45 37.852 0 10.455-10.45 10.455-27.397 0-37.852l-164.347-164.352c-5.223-5.217-12.073-7.829-18.923-7.829z" />
<glyph unicode="&#xe001;" d="M357.099 202.482l-164.352-164.347c-10.455-10.455-27.402-10.455-37.852 0-10.45 10.45-10.45 27.402 0 37.852l145.423 145.418-145.418 145.418c-10.45 10.455-10.45 27.402 0 37.852 10.45 10.455 27.397 10.455 37.852 0l164.352-164.347c5.223-5.228 7.834-12.073 7.834-18.923s-2.616-13.701-7.839-18.923z" />
<glyph unicode="&#xe002;" d="M160 236.905h-32v32h32v-32zM224 268.905h-32v-32h32v32zM192 300.905h-32v-32h32v32zM256 300.905h-32v-32h32v32zM224 332.905h-32v-32h32v32zM288 332.905h-32v-32h32v32zM256 364.905h-32v-32h32v32zM320 364.905h-32v-32h32v32zM288 396.905h-32v-32h32v32zM352 396.905h-32v-32h32v32zM320 428.905h-32v-32h32v32zM384 428.905h-32v-32h32v32zM352 460.905h-32v-32h32v32zM416 460.905h-32v-32h32v32zM384-19.095h32v32h-32v-32zM320-19.095h32v32h-32v-32zM352 12.905h32v32h-32v-32zM288 12.905h32v32h-32v-32zM320 44.905h32v32h-32v-32zM256 44.905h32v32h-32v-32zM288 76.905h32v32h-32v-32zM224 76.905h32v32h-32v-32zM256 108.905h32v32h-32v-32zM192 108.905h32v32h-32v-32zM224 140.905h32v32h-32v-32zM160 140.905h32v32h-32v-32zM192 172.905h32v32h-32v-32zM128 172.905h32v32h-32v-32zM128 236.905h-32v-32h32v32zM192 236.905h-32v-32h32v32z" />
<glyph unicode="&#xe003;" d="M352 253.405h-233.376l68.672 68.672c6.24 6.24 6.24 16.384 0 22.624s-16.384 6.24-22.624 0l-96-96c-6.24-6.24-6.24-16.352 0-22.624l96-96c6.24-6.24 16.384-6.24 22.624 0 6.24 6.208 6.24 16.384 0 22.624l-68.672 68.704h233.376c64 0 96-59.072 96-112 0-8.8 7.2-16 16-16s16 7.2 16 16c0 70.592-32 144-128 144z" />
<glyph unicode="&#xe004;" d="M395.637 235.453h-341.678l122.014 121.591-19.945 19.86-156.028-155.506 156.028-155.506 19.931 19.86-122.001 121.605h341.663v28.096h0.014zM39.861 221.412l3.419 3.404v-6.808l-3.419 3.404z" horiz-adv-x="396" />
<glyph unicode="&#xe005;" d="M287.39 278.166h-82.857l6.84 6.841c4.265 4.265 4.265 11.177 0 15.447-4.265 4.265-11.177 4.265-15.447 0l-25.482-25.482c-0.005-0.005-0.010-0.005-0.010-0.005l-7.721-7.726 7.721-7.716c0 0 0.005-0.005 0.010-0.015l27.3-27.295c2.135-2.135 4.93-3.2 7.721-3.2 2.8 0 5.591 1.065 7.726 3.2 4.265 4.265 4.265 11.177 0 15.447l-8.658 8.658h82.857c22.082 0 40.048-17.971 40.048-40.048s-17.971-40.048-40.048-40.048h-109.22c-6.036 0-10.926-4.889-10.926-10.921s4.889-10.921 10.926-10.921h109.22c34.13 0 61.89 27.766 61.89 61.89s-27.76 61.895-61.89 61.895z" />
<glyph unicode="&#xe006;" d="M413.848 409.405c-0.32 0-0.616-0.080-0.928-0.096-0.312 0.024-0.608 0.096-0.92 0.096h-332.208c-1.936 0-3.744-0.504-5.36-1.32-23.512-7.632-34.352-50.488-34.352-90.68v-192c0-50.728 41.272-92 92-92h231.688c50.728 0 92 41.272 92 92v192c0 44.312-13.12 92-41.92 92zM384 385.405c-7.96-16.44-12.072-39.264-12.072-62 0-34.184-30.504-62-68-62h-112c-37.496 0-68 27.816-68 62 0 22.736-4.12 45.56-12.080 62h272.152zM431.768 125.405c0-37.496-30.504-68-68-68h-231.688c-37.496 0-68 30.504-68 68v192c0 42.184 12.624 66.792 17.92 68 4.608 0 17.928-21.32 17.928-62 0-47.424 41.272-86 92-86h112c50.728 0 92 38.576 92 86 0 40.68 13.32 62 17.832 62.008 5.384-1.208 18.008-25.816 18.008-68.008v-192zM343.992 209.605h-181.328c-28.672 0-52-23.328-52-52v-2.864c0-28.672 23.328-52 52-52h181.328c28.672 0 52 23.328 52 52v2.864c0 28.672-23.328 52-52 52zM371.992 154.741c0-15.44-12.56-28-28-28h-181.328c-15.44 0-28 12.56-28 28v2.864c0 15.44 12.56 28 28 28h181.328c15.44 0 28-12.56 28-28v-2.864zM186 292.541c10.136 0 18.352 12.648 18.352 28.232v11.296c0 15.592-8.216 28.232-18.352 28.232s-18.352-12.648-18.352-28.232v-11.296c0-15.592 8.216-28.232 18.352-28.232z" />
<glyph unicode="&#xe007;" d="M496.224 328.989c8.992 8.4 14.16 20.144 14.32 32.448 0.128 12.32-4.816 24.16-13.632 32.768l-61.152 59.792c-8.56 8.368-20.096 12.992-32.096 12.848-11.968-0.144-23.376-5.024-31.712-13.6l-115.152-118.032-113.52 118.288c-8.944 9.312-21.2 14.704-34.112 14.944-12.912 0.272-25.408-4.608-34.704-13.552l-59.12-56.8c-8.896-8.528-13.888-20.32-13.856-32.656 0.032-12.32 5.088-24.080 14.016-32.576l123.936-117.888-109.728-112.448c-16.736-17.152-17.136-44.4-0.928-62.064l42.72-46.432c8.144-8.88 19.488-14.096 31.52-14.544 12.016-0.448 23.728 3.904 32.512 12.144l120.352 112.56 117.424-111.68c8.72-8.304 20.368-12.752 32.4-12.368 12.032 0.336 23.408 5.504 31.648 14.32l43.072 46.032c16.352 17.536 16.208 44.784-0.384 62.064l-106.88 111.424 123.056 115.008z" />
<glyph unicode="&#xe008;" d="M502.64 308.029l-160 160c-7.936 7.936-19.44 11.12-30.336 8.432-5.744-1.408-10.88-4.368-14.944-8.432-3.632-3.632-6.368-8.128-7.936-13.152-7.248-23.504-19.776-43.936-38.32-62.464-24.768-24.752-57.024-43.504-91.152-63.328-36.224-20.992-73.648-42.752-104.32-73.408-26.064-26.096-43.808-55.12-54.208-88.816-3.504-11.376-0.448-23.68 7.936-32.096l160-160c7.936-7.936 19.44-11.12 30.336-8.432 5.744 1.44 10.88 4.368 14.944 8.432 3.632 3.632 6.368 8.128 7.936 13.184 7.264 23.504 19.792 43.936 38.352 62.464 24.752 24.752 56.992 43.472 91.152 63.28 36.192 21.024 73.632 42.784 104.288 73.44 26.064 26.064 43.808 55.12 54.224 88.816 3.488 11.36 0.416 23.712-7.952 32.080zM192-2.595c-52.992 52.992-107.008 107.024-160 160 45.472 147.216 242.56 140.784 288 288 52.992-52.976 107.024-107.008 160.032-160-45.488-147.184-242.576-140.784-288.032-288zM312.992 239.005c-5.216 4.368-10.464 7.344-15.744 8.816-5.248 1.472-10.496 2.064-15.808 1.68-5.248-0.4-10.624-1.6-16-3.664-5.376-2.096-10.784-4.368-16.224-7.008-8.592 9.872-17.184 19.632-25.776 28.688 3.872 3.504 7.632 5.28 11.248 5.408 3.632 0.16 7.12-0.224 10.432-1.056 3.376-0.848 6.464-1.568 9.312-2.128 2.88-0.56 5.376 0.064 7.568 1.904 2.32 2 3.6 4.592 3.776 7.712 0.16 3.152-1.024 6.224-3.664 9.216-3.376 3.872-7.44 6.224-12.32 7.088-4.816 0.848-9.744 0.784-14.88-0.336-5.056-1.152-9.872-3.056-14.432-5.744s-8.224-5.44-10.944-8.128c-1.040 0.992-2.080 1.968-3.12 2.944-1.152 1.056-2.592 1.632-4.32 1.6-1.744 0-3.184-0.752-4.368-2.128-1.152-1.344-1.68-2.912-1.472-4.56 0.16-1.712 0.848-3.024 2.032-4.032 1.040-0.88 2.080-1.744 3.12-2.656-4.096-4.944-7.472-10.4-10.128-16.16-2.688-5.776-4.288-11.504-4.88-17.056-0.624-5.6-0.032-10.72 1.68-15.472 1.712-4.784 4.88-8.848 9.504-12.688 7.536-6.256 16.4-8.912 26.688-8.32 10.256 0.624 21.312 3.68 33.2 10.064 9.44-10.912 18.912-21.744 28.368-31.808-4-3.376-7.504-5.312-10.592-5.936-3.088-0.656-5.84-0.592-8.336 0.16-2.496 0.784-4.816 1.904-6.944 3.344-2.128 1.472-4.224 2.72-6.32 3.744-2.064 1.024-4.192 1.6-6.368 1.632s-4.496-1.024-7.056-3.216c-2.624-2.288-3.936-4.944-3.936-7.936 0-2.976 1.376-6 4.064-9.056 2.72-3.056 6.256-5.632 10.528-7.664s9.104-3.312 14.416-3.664c5.312-0.368 10.912 0.432 16.816 2.624 5.936 2.16 11.808 6.064 17.6 11.872 2.784-2.72 5.6-5.312 8.4-7.808 1.184-1.024 2.624-1.536 4.368-1.408 1.68 0.064 3.152 0.848 4.32 2.256 1.184 1.44 1.68 3.024 1.504 4.688-0.16 1.68-0.848 2.976-2 3.904-2.816 2.256-5.632 4.624-8.432 7.12 4.784 5.872 8.624 12.064 11.472 18.192 2.848 6.16 4.528 12.096 5.088 17.6 0.56 5.536-0.096 10.528-1.904 15.056-1.792 4.592-4.976 8.528-9.536 12.32zM223.536 228.157c-4.528-0.192-8.48 1.312-11.936 4.656-1.472 1.408-2.496 3.12-3.12 5.152-0.656 2.032-0.88 4.256-0.624 6.688 0.224 2.4 0.944 4.912 2.192 7.44 1.184 2.528 2.944 5.056 5.184 7.504 8.112-8.064 16.208-16.912 24.32-26.064-6.144-3.376-11.488-5.184-16.016-5.376zM299.008 196.125c-1.44-2.656-3.088-5.024-5.024-7.088-8.976 9.056-17.936 19.008-26.88 29.216 2.288 1.024 4.688 2.096 7.28 3.184s5.184 1.808 7.776 2.256c2.656 0.4 5.28 0.288 7.904-0.336 2.592-0.656 5.056-2.064 7.344-4.288 2.256-2.256 3.68-4.592 4.256-7.12 0.624-2.56 0.656-5.152 0.224-7.808-0.464-2.672-1.408-5.328-2.88-8.016zM235.472 122.525h-0.032c-10-7.68-19.76-15.776-28.8-24.848-8.688-8.688-16.544-17.84-23.376-27.184l-10.944-14.944 0.032-0.032c-2-3.12-1.664-7.312 1.056-10.032 3.12-3.12 8.224-3.12 11.36 0 0.48 0.496 0.864 1.024 1.184 1.6l10.224 14c6.336 8.656 13.664 17.184 21.776 25.28 8.976 8.976 17.296 15.904 27.424 23.6l-0.032 0.032c0.288 0.224 0.56 0.4 0.816 0.656 3.136 3.12 3.136 8.224 0 11.344-2.896 2.944-7.536 3.072-10.688 0.528zM294.048 353.965c-8.368-8.368-17.44-15.904-26.848-23.088-0.656-0.368-1.312-0.784-1.872-1.376-3.152-3.152-3.152-8.288 0-11.44 3.056-3.088 8-3.152 11.184-0.224l0.064-0.032c10 7.68 19.744 15.808 28.784 24.848 8.688 8.688 16.528 17.808 23.376 27.152l10.944 15.008-0.032 0.032c2.72 3.184 2.592 7.936-0.4 10.944-3.152 3.152-8.256 3.152-11.408 0-0.592-0.592-1.024-1.28-1.408-1.968l-10.624-14.56c-6.352-8.704-13.664-17.2-21.76-25.296z" />
<glyph unicode="&#xe009;" d="M510.096 276.493c-4.432 12.784-15.808 22.144-29.504 24.176l-133.216 19.808-57.904 120.224c-6.096 12.624-19.136 20.704-33.472 20.704s-27.376-8.080-33.472-20.704l-57.904-120.224-133.232-19.808c-13.68-2.032-25.056-11.392-29.472-24.176-4.4-12.816-1.072-26.928 8.592-36.56l97.632-97.472-22.64-135.216c-2.304-13.616 3.6-27.28 15.168-35.248 6.352-4.368 13.824-6.592 21.296-6.592 6.144 0 12.304 1.504 17.888 4.496l116.144 62.528 116.16-62.528c5.584-2.992 11.744-4.496 17.872-4.496 7.472 0 14.944 2.224 21.312 6.592 11.568 7.968 17.44 21.632 15.152 35.248l-22.656 135.216 97.664 97.472c9.648 9.648 12.96 23.76 8.592 36.56zM377.408 167.597c-8.192-8.16-11.904-19.664-10.032-30.944l22.656-135.216-116.16 62.496c-5.568 3.008-11.712 4.496-17.888 4.496-6.144 0-12.304-1.504-17.872-4.496l-116.16-62.496 22.656 135.216c1.888 11.28-1.824 22.784-10.016 30.944l-97.632 97.472 133.216 19.84c12.176 1.808 22.656 9.424 27.888 20.288l57.936 120.192 57.92-120.208c5.248-10.864 15.712-18.464 27.872-20.288l133.248-19.84-97.632-97.456z" />
<glyph unicode="&#xe00a;" d="M400 477.405c-32.848 0-58.656-22.56-77.184-57.376l-0.336 0.192c-26.912-52.688-66.976-86.816-110.864-86.816h-147.616c-35.888 0-64-35.152-64-80 0-44.88 28.112-80 64-80 17.648-0.064 31.92-14.336 31.92-32v-144c0-17.68 14.336-32 32-32h64c17.664 0 32 14.32 32 32v16c0 16-16 23.152-16 32v112c0 0.368 0.256 0.624 0.288 0.992 0.16 2.288 0.784 4.4 1.792 6.32 0.288 0.528 0.592 0.944 0.944 1.408 1.28 1.904 2.896 3.472 4.864 4.688 0.096 0.064 0.128 0.16 0.224 0.224 0.064 0 0.112 0.064 0.176 0.064 1.28 0.72 2.816 0.88 4.256 1.28 40.384-4.288 76.944-36.88 102.032-85.968l0.4 0.192c18.544-34.704 44.288-57.2 77.104-57.2 73.536 0 112 112.688 112 224s-38.464 224-112 224zM320 253.405c0 16.592 0.976 32.624 2.624 48h45.376c17.664 0 32-21.504 32-48 0-26.528-14.336-48-32-48h-45.376c-1.648 15.376-2.624 31.376-2.624 48zM32 253.405c0 26.496 14.336 48 32 48h112.224c-9.92-11.664-16.224-28.592-16.224-48 0-19.44 6.304-36.368 16.224-48h-112.224c-17.664 0-32 21.472-32 48zM191.92-2.595h-64v144c0 11.664-3.12 22.56-8.592 32h11.168v-0.192h48.128c-1.712-4.976-2.704-10.256-2.704-15.808v-112c0-15.408 8.608-25.664 13.744-31.776 0.704-0.848 1.536-1.712 2.256-2.656v-13.568zM211.616 205.213h-3.616v0.192c-17.664 0-32 21.472-32 48 0 26.496 14.336 48 32 48h3.616c30.176 0 58.432 11.872 83.296 32.288-4.576-25.76-6.912-53.040-6.912-80.288 0-27.344 2.336-54.72 6.944-80.496-24.88 20.432-53.152 32.304-83.328 32.304zM400 61.405c-32.288 0-60 45.936-72.656 112h40.656c35.872 0 64 35.12 64 80 0 44.848-28.128 80-64 80h-40.656c12.656 66.032 40.368 112 72.656 112 44.192 0 80-85.968 80-192s-35.808-192-80-192z" />
<glyph unicode="&#xe00b;" d="M479.68 368.301c-1.536 25.12-22.192 45.056-47.68 45.056h-48v16.032c0 26.512-21.504 48-48 48h-160c-26.512 0-48-21.488-48-48v-16.016h-48c-25.52 0-46.16-19.936-47.696-45.056h-0.304v-34.928c0-17.664 14.336-32 32-32v0-272c0-35.344 28.656-64 64-64h256c35.344 0 64 28.656 64 64v272c17.664 0 32 14.336 32 32v34.912h-0.32zM160 429.373c0 8.848 7.152 16 16 16h160c8.848 0 16-7.152 16-16v-16h-192v16zM416 29.373c0-17.632-14.368-32-32-32h-256c-17.648 0-32 14.368-32 32v272h320v-272zM448 349.389v-16h-384v31.984c0 8.848 7.152 16 16 16h352c8.848 0 16-7.152 16-16v-15.984zM144 29.309h32c8.848 0 16 7.152 16 16v208c0 8.848-7.152 16-16 16h-32c-8.848 0-16-7.152-16-16v-208c0-8.848 7.152-16 16-16zM144 253.325h32v-208h-32v208zM240 29.309h32c8.848 0 16 7.152 16 16v208c0 8.848-7.152 16-16 16h-32c-8.848 0-16-7.152-16-16v-208c0-8.848 7.152-16 16-16zM240 253.325h32v-208h-32v208zM336 29.309h32c8.848 0 16 7.152 16 16v208c0 8.848-7.152 16-16 16h-32c-8.848 0-16-7.152-16-16v-208c0-8.848 7.152-16 16-16zM336 253.325h32v-208h-32v208z" />
<glyph unicode="&#xe00c;" d="M384 264.072h-85.334v85.334c0 23.552-19.115 42.666-42.666 42.666s-42.666-19.114-42.666-42.666l1.514-85.334h-86.848c-23.552 0-42.666-19.114-42.666-42.666s19.115-42.666 42.666-42.666l86.848 1.514-1.514-86.848c0-23.552 19.114-42.666 42.666-42.666s42.666 19.115 42.666 42.666v86.848l85.334-1.514c23.552 0 42.666 19.115 42.666 42.666s-19.115 42.666-42.666 42.666z" />
<glyph unicode="&#xe00d;" d="M400 269.405v64c0 79.536-64.464 144-144 144s-144-64.464-144-144v-64c-26.512 0-48-21.488-48-48v-112c0-79.536 64.464-144 144-144h96c79.536 0 144 64.464 144 144v112c0 26.528-21.504 48-48 48zM144 333.405c0 61.856 50.144 112 112 112s112-50.144 112-112v-64h-32v63.968c0 44.192-35.808 80-80 80s-80-35.808-80-80v-63.968h-32v64zM320 333.405v-64h-128v64c0 35.344 28.656 64 64 64s64-28.656 64-64zM416 173.405v-64c0-61.744-50.256-112-112-112h-96c-61.744 0-112 50.256-112 112v112c0 8.832 7.168 16 16 16 10.672 0 21.328 0 32 0h224c10.656 0 21.312 0 32 0 8.816 0 16-7.168 16-16v-48zM256 173.405c-17.664 0-32-14.32-32-32 0-9.712 5.328-28.16 10.672-42.752 4.352-11.872 9.824-21.216 21.328-21.216 12.512 0 16.976 9.248 21.344 21.056 5.408 14.624 10.656 33.168 10.656 42.912 0 17.68-14.336 32-32 32z" />
<glyph unicode="&#xe00e;" d="M256 365.405c-95.408 0-176-51.296-176-112 0-4.416 3.584-8 8-8s8 3.584 8 8c0 51.136 74.768 96 160 96 4.4 0 8 3.584 8 8s-3.584 8-8 8zM256 445.405c-141.392 0-256-85.968-256-192 0-66.032 44.464-124.256 112.128-158.816 0-0.432-0.128-0.72-0.128-1.184 0-28.688-21.424-59.568-30.848-75.776 0.016 0 0.032 0 0.032 0-0.752-1.76-1.184-3.696-1.184-5.728 0-8 6.48-14.496 14.496-14.496 1.504 0 4.144 0.4 4.080 0.224 50 8.192 97.104 54.128 108.048 67.44 15.984-2.352 32.464-3.664 49.376-3.664 141.36 0 256 85.968 256 192s-114.624 192-256 192zM256 93.405c-14.672 0-29.728 1.12-44.736 3.312-1.552 0.256-3.104 0.336-4.64 0.336-9.504 0-18.608-4.224-24.736-11.68-6.848-8.336-26.336-26.944-49.36-40.624 6.24 14.32 11.12 30.368 11.456 46.912 0.096 1.024 0.144 2.064 0.144 2.944 0 12.032-6.736 23.024-17.44 28.496-59.296 30.272-94.688 78.992-94.688 130.304 0 88.224 100.48 160 224 160 123.488 0 224-71.776 224-160s-100.496-160-224-160z" />
<glyph unicode="&#xe00f;" d="M480 381.405h-14.192c-8.4 0-16.464-3.312-22.464-9.216l-43.344-42.752v19.968c0 26.512-21.504 48-48 48h-304c-26.464 0-48-21.52-48-48v-256c0-26.496 21.488-48 48-48h304c26.496 0 48 21.504 48 48v19.536l43.344-42.752c6-5.904 14.064-9.216 22.464-9.216h14.192c17.664 0 32 14.32 32 32v256.432c0 17.68-14.336 32-32 32zM48 77.405c-8.832 0-16 7.184-16 16v256c0 8.848 7.152 16 16 16h304c8.816 0 16-7.168 16-16v-256c0-8.816-7.184-16-16-16h-304zM480 92.973h-16l-64 64v0.432l-16 16v96l80 80h16v-256.432z" />
<glyph unicode="&#xe010;" d="M256 317.389c-70.704 0-128-57.296-128-128 0-70.688 57.296-128 128-128 70.688 0 128 57.312 128 128s-57.312 128-128 128zM328.88 126.909c-34.496-40.256-95.088-44.912-135.344-10.4-40.272 34.496-44.912 95.104-10.4 135.344 34.48 40.272 95.088 44.912 135.344 10.4 40.24-34.48 44.896-95.104 10.4-135.344zM256 253.389c-35.344 0-63.984-28.656-64-63.984v-0.032c0-4.4 3.584-8 8-8s8 3.6 8 8v0.032c0.016 26.496 21.488 47.984 48 47.984 4.416 0 8 3.584 8 8s-3.584 8-8 8zM471.872 332.733l-69.344 11.568-21.968 54.944c-7.344 18.32-24.848 30.16-44.56 30.16h-160c-19.712 0-37.216-11.84-44.576-30.176l-21.952-54.928-69.328-11.568c-23.264-3.856-40.144-23.76-40.144-47.328v-240c0-26.464 21.536-48 48-48h416c26.464 0 48 21.536 48 48v240c0 23.568-16.88 43.472-40.128 47.328zM480 45.405c0-8.848-7.152-16-16-16h-416c-8.848 0-16 7.152-16 16v240c0 7.824 5.664 14.496 13.376 15.776l87.104 14.512 28.656 71.648c2.448 6.064 8.32 10.064 14.864 10.064h160c6.528 0 12.4-3.984 14.848-10.064l28.656-71.648 87.12-14.512c7.712-1.28 13.376-7.952 13.376-15.776v-240z" />
<glyph unicode="&#xe011;" d="M352.034 221.394l144.079 144.101c21.132 21.132 21.132 55.714 0 76.845l-19.2 19.201c-21.132 21.153-55.714 21.153-76.845 0l-144.079-144.101-144.101 144.101c-21.109 21.131-55.692 21.131-76.823 0l-19.222-19.201c-21.11-21.131-21.11-55.714 0-76.845l144.079-144.079-144.079-144.101c-21.11-21.132-21.11-55.714 0-76.823l19.222-19.2c21.131-21.132 55.714-21.132 76.823 0l144.101 144.057 144.079-144.057c21.132-21.131 55.714-21.131 76.845 0l19.2 19.2c21.132 21.132 21.132 55.714 0 76.823l-144.079 144.079z" />
<glyph unicode="&#xe012;" d="M512.005 110.217l-7.236-8.036-248.769 223.891-248.769-223.891-7.231 8.036 256 230.413 256.005-230.413z" />
<glyph unicode="&#xe013;" d="M368 477.405h-176c-17.6 0-32-14.4-32-32v-48h-64c-17.6 0-32-14.4-32-32v-368c0-17.6 14.4-32 32-32h240c17.6 0 32 14.4 32 32v48h64c17.6 0 32 14.4 32 32v288l-96 112zM368 453.405l75.2-88h-59.2c-8 0-16 8-16 16v72zM352-2.595c0-8-6.4-16-16-16h-240c-8 0-16 6.4-16 16v368c0 8 6.4 16 16 16h160v-80c0-17.6 14.4-32 32-32h64v-272zM272 301.405v72l75.2-88h-59.2c-8 0-16 8-16 16zM448 77.405c0-8-6.4-16-16-16h-64v224l-96 112h-96v48c0 8 6.4 16 16 16h160v-80c0-17.6 14.4-32 32-32h64v-272z" />
<glyph unicode="&#xe014;" d="M129.351 297.458l50.683 50.683 76.027-76.027 76.027 76.027 50.688-50.683-76.027-76.053 76.032-76.001-50.688-50.688-76.027 76.032-76.027-76.032-50.683 50.688 76.022 76.001-76.027 76.053z" />
<glyph unicode="&#xe015;" d="M477.416 408.541l-34.232 34.304-187.176-187.176-187.16 187.176-34.264-34.288 187.16-187.152-187.16-187.152 34.264-34.288 187.16 187.192 187.176-187.192 34.232 34.304-187.136 187.136z" />
<glyph unicode="&#xe016;" d="M204.448 221.405l-85.92-85.92c-14.232-14.24-14.232-37.336 0-51.568 14.224-14.224 37.32-14.224 51.544 0l85.928 85.936 85.912-85.936c14.24-14.224 37.32-14.224 51.552 0 14.248 14.24 14.232 37.336 0 51.568l-85.912 85.92 85.92 85.904c14.24 14.248 14.24 37.336 0 51.568-14.24 14.248-37.32 14.248-51.56 0l-85.912-85.928-85.928 85.928c-14.224 14.248-37.32 14.248-51.552 0-14.232-14.232-14.232-37.296 0-51.536l85.928-85.936z" />
<glyph unicode="&#xe017;" d="M506.92 456.693l-15.616 15.64-235.304-235.288-235.288 235.288-15.632-15.64 235.288-235.288-235.288-235.288 15.632-15.648 235.288 235.32 235.304-235.32 15.616 15.648-235.288 235.288z" />
<glyph unicode="&#xe018;" d="M400 221.405h-112v112c0 8.832-7.2 16-16 16-8.832 0-16-7.168-16-16v-112h-112c-8.832 0-16-7.168-16-16 0-8.8 7.168-16 16-16h112v-112c0-8.8 7.168-16 16-16 8.8 0 16 7.2 16 16v112h112c8.8 0 16 7.2 16 16 0 8.832-7.2 16-16 16z" />
<glyph unicode="&#xe019;" d="M449.776 397.053l-19.44 58.48c-4.336 13.072-16.56 21.872-30.336 21.872h-288c-13.792 0-26-8.8-30.368-21.872l-19.6-58.512c-16.704-1.072-30.032-14.64-30.032-31.616v-48c0-17.664 14.336-32 32-32h16.544l-0.336-3.536 32-288c1.792-16.176 15.472-28.464 31.792-28.464h224c16.32 0 30 12.288 31.776 28.464l32 288-0.336 3.536h16.56c17.664 0 32 14.336 32 32v48c0 17.040-13.44 30.672-30.224 31.648zM112 445.405h288l16-48h-320l16 48zM368-2.595h-224l-5.328 48h234.656l-5.328-48zM375.088 61.405h-238.208l-17.776 160h273.776l-17.792-160zM394.656 237.405h-277.328l-5.328 48h288l-5.344-48zM448 317.405h-384v48h384v-48z" />
<glyph unicode="&#xe01a;" d="M356.49 447.66c0 16.385-13.306 29.745-29.673 29.745h-297.127c-16.403 0-29.691-13.361-29.691-29.745v-314.117c0-16.421 13.287-29.745 29.691-29.745h105.383v239.652c0 16.403 13.287 29.745 29.691 29.745h191.744v74.465zM505.054 338.977h-297.109c-16.422 0-29.709-13.324-29.709-29.672v-314.154c0-16.421 13.287-29.745 29.709-29.745h297.109c16.366 0 29.673 13.324 29.673 29.745v314.154c0 16.366-13.324 29.673-29.673 29.673z" horiz-adv-x="535" />
<glyph unicode="&#xe01b;" d="M256 477.405c-107.904 0-224-32.528-224-104v-304c0-71.44 116.096-104 224-104 107.888 0 224 32.56 224 104v304c0 71.472-116.128 104-224 104zM448 69.405c0-39.744-85.968-72-192-72-106.048 0-192 32.256-192 72v59.776c33.056-34.064 112.8-51.776 192-51.776s158.944 17.712 192 51.776v-59.776zM448 165.405h-0.064c0-0.16 0.064-0.336 0.064-0.496 0-39.504-85.968-71.504-192-71.504s-192 32-192 71.504c0 0.16 0.064 0.336 0.064 0.496h-0.064v59.776c33.056-34.064 112.8-51.776 192-51.776s158.944 17.712 192 51.776v-59.776zM448 261.405h-0.064c0-0.16 0.064-0.336 0.064-0.496 0-39.504-85.968-71.504-192-71.504s-192 32-192 71.504c0 0.16 0.064 0.336 0.064 0.496h-0.064v54.976c41.936-31.952 118.8-46.976 192-46.976s150.064 15.024 192 46.976v-54.976zM256 301.405c-106.048 0-192 32.256-192 72 0 39.776 85.952 72 192 72 106.032 0 192-32.224 192-72 0-39.744-85.968-72-192-72zM384 61.405c0 8.837 7.163 16 16 16s16-7.163 16-16c0-8.837-7.163-16-16-16s-16 7.163-16 16zM384 157.405c0 8.837 7.163 16 16 16s16-7.163 16-16c0-8.837-7.163-16-16-16s-16 7.163-16 16zM384 253.405c0 8.837 7.163 16 16 16s16-7.163 16-16c0-8.837-7.163-16-16-16s-16 7.163-16 16z" />
<glyph unicode="&#xe01c;" d="M393.37 310.693l-89.283-89.287 89.283-89.288c13.281-13.281 13.281-34.806 0-48.087-6.635-6.635-15.334-9.959-24.034-9.959-8.704 0-17.403 3.318-24.038 9.959l-89.298 89.293-89.293-89.293c-6.636-6.635-15.334-9.959-24.038-9.959-8.699 0-17.392 3.318-24.034 9.959-13.281 13.276-13.281 34.8 0 48.087l89.278 89.288-89.282 89.287c-13.281 13.281-13.281 34.806 0 48.087 13.276 13.271 34.791 13.271 48.072 0l89.298-89.293 89.293 89.293c13.281 13.271 34.796 13.271 48.072 0 13.286-13.281 13.286-34.806 0.005-48.087z" />
<glyph unicode="&#xe01d;" d="M480 477.405h-457.216c-12.544 0-22.784-10.24-22.784-22.816v-457.184c0-17.664 14.336-32 32-32h457.216c12.544 0 22.784 10.24 22.784 22.816v457.184c0 17.664-14.336 32-32 32zM480 220.669h-223.648v-223.264h-224.352v224h224v224h224v-224.736z" />
<glyph unicode="&#xe01e;" d="M426.688 477.405h-341.345c-46.938 0-85.343-38.408-85.343-85.346v-341.312c0-46.965 38.405-85.342 85.343-85.342h341.345c46.937 0 85.312 38.376 85.312 85.342v341.312c0 46.938-38.375 85.346-85.312 85.346zM480 50.747c0-14.167-5.57-27.541-15.685-37.658-10.111-10.114-23.474-15.684-37.627-15.684h-170.688v224h-224v170.654c0 14.154 5.575 27.525 15.698 37.648s23.492 15.698 37.645 15.698h170.657v-224h224v-170.658z" />
<glyph unicode="&#xe01f;" d="M502.624 322.573l-81.28 81.296c-6 6-14.16 9.376-22.624 9.376h-285.424c-8.48 0-16.624-3.376-22.624-9.376l-81.28-81.296c-6.288-6.272-9.424-14.544-9.392-22.832 0.048-7.52 2.736-15.024 8.096-21.056l223.984-238.528c6.080-6.848 14.784-10.752 23.92-10.752 9.12 0 17.84 3.904 23.904 10.752l224 238.528c5.472 6.16 8.16 13.872 8.096 21.568-0.064 8.096-3.216 16.16-9.376 22.32zM387.504 381.245l-30.656-25.552-25.536 25.552h56.192zM388.688 301.245h-72.224l39.408 32.816 32.816-32.816zM344.512 345.405l-40.512-33.744-35.488 29.584 43.696 36.448 32.304-32.288zM291.504 301.245h-71.024l35.52 29.584 35.504-29.584zM291.488 381.245l-35.488-29.6-35.52 29.6h71.008zM243.504 341.245l-35.504-29.584-40.512 33.744 32.288 32.288 43.728-36.448zM195.52 301.245h-72.208l32.816 32.816 39.392-32.816zM180.688 381.245l-25.552-25.552-30.656 25.552h56.208zM106.976 375.005l36.816-30.672-43.104-43.088h-68.592l74.88 73.76zM45.824 285.245h56.864l100.576-167.664-157.44 167.664zM121.328 285.245h78.512l39.248-196.32-117.76 196.32zM216.16 285.245h79.68l-39.84-199.248-39.84 199.248zM272.912 88.941l39.248 196.32h78.496l-117.744-196.32zM308.72 117.565l100.592 167.68h56.88l-157.472-167.68zM411.312 301.245l-43.088 43.088 36.752 30.64 73.712-73.728h-67.376z" />
<glyph unicode="&#xe020;" d="M390.696 394.797v-163.416c0-8.84-7.16-16-16-16h-235.664c-8.84 0-16 7.16-16 16v163.64c0 8.84-7.272 16.208-15.84 14.024-27.688-7.048-48.16-32.144-48.16-62.024v-263.272c0-29.296 19.696-53.944 46.552-61.528 8.504-2.4 15.776 2.808 15.776 9.216s7.16 11.608 16 11.608h40c8.84 0 16-5.216 16-11.648s7.16-11.648 16-11.648h176.936c35.344 0 64 28.656 64 64v263.272c0 28.328-18.424 52.312-43.936 60.72-8.384 2.76-15.664-4.104-15.664-12.944zM372.032 81.709h-230.336c-8.832 0-16 7.168-16 16s7.168 16 16 16h230.336c8.832 0 16-7.168 16-16s-7.168-16-16-16zM372.032 143.741h-230.336c-8.832 0-16 7.168-16 16s7.168 16 16 16h230.336c8.832 0 16-7.168 16-16s-7.168-16-16-16zM337.368 409.709h-26.664c-8.84 0-16-7.16-16-16v-122.664c0-8.84 7.16-16 16-16h26.664c8.84 0 16 7.16 16 16v122.664c0 8.832-7.168 16-16 16z" />
<glyph unicode="&#xe021;" d="M464 461.405h-416c-26.512 0-48-21.472-48-48v-320c0-26.464 21.408-47.904 47.84-47.968h160.16v-19.472l-99.872-12.976c-7.136-1.776-12.128-8.176-12.128-15.52 0-8.848 7.152-16 16-16h288c8.848 0 16 7.152 16 16 0 7.344-4.992 13.744-12.128 15.536l-99.872 12.96v19.472h160.16c26.432 0.064 47.84 21.504 47.84 47.968v320c0 26.528-21.504 48-48 48zM480 93.405c0-8.816-7.184-16-16-16h-416c-8.832 0-16 7.184-16 16v320c0 8.832 7.168 16 16 16h416c8.816 0 16-7.168 16-16v-320zM432 397.469l-352-0.064c-8.848 0-16-7.088-16-15.936v-224c0-8.848 7.152-16 16-16h352c8.848 0 16 7.152 16 16v224c0 8.848-7.152 16-16 16zM432 157.405h-352v224.064h352v-224.064z" />
<glyph unicode="&#xe022;" d="M255.99 451.805c-127.248-0.010-230.39-103.158-230.39-230.41 0-127.232 103.142-230.39 230.39-230.39s230.395 103.158 230.41 230.39c-0.015 127.252-103.163 230.4-230.41 230.41zM397.163 332.345c22.477-28.544 36.551-63.892 38.329-102.492-26.014 5.519-50.586 8.207-73.498 8.207v0.005h-0.169c-18.442 0-35.758-1.674-52.070-4.567-3.968 9.718-7.982 19.052-12.032 27.991 36.332 15.938 71.204 38.63 99.44 70.856zM255.99 401.153c42.404 0 81.296-14.822 112.087-39.501-23.562-28.211-54.666-48.645-88.269-63.074-23.608 45.655-46.423 78.316-62.019 98.284 12.345 2.739 25.088 4.291 38.201 4.291zM176.594 382.414c12.477-14.736 37.458-47.15 64.138-97.761-54.262-16.154-108.903-19.947-141.962-19.938-0.942 0-1.874 0-2.79 0.010h-0.031c-5.566 0-10.352 0.087-14.352 0.21 12.897 51.61 48.256 94.351 94.996 117.478zM76.237 221.395c0 0.845 0.031 1.705 0.082 2.59 5.13-0.19 11.715-0.353 19.635-0.353h0.046c36.132 0.236 99.221 3.257 163.154 23.44 3.486-7.618 6.933-15.554 10.348-23.792-42.696-14.279-76.324-37.028-101.197-59.684-23.941-21.811-40.12-43.408-49.572-57.831-26.45 31.314-42.481 71.557-42.496 115.63zM255.99 41.637c-40.002 0-76.871 13.23-106.782 35.43 6.359 10.471 19.988 30.567 41.692 51.338 22.333 21.401 53.161 43.428 93.41 56.54 13.68-38.349 26.061-82.192 35.492-131.538-19.865-7.567-41.334-11.771-63.81-11.771zM357.724 73.555c-9.118 44.631-20.587 84.874-33.178 120.791 11.678 1.674 23.936 2.622 36.869 2.622h0.522c21.442 0 45-2.668 70.548-8.474-8.842-47.529-36.373-88.464-74.762-114.939z" />
<glyph unicode="&#xe023;" d="M260.603 294.537h-93.752v45.7c0 0-5.251 43.459 25.136 43.459 34.341 0 61.761 0 61.761 0v93.708h-105.155c0 0-87.996 0.373-87.996-87.995 0-18.984-0.088-53.545-0.219-94.873h-60.377v-75.45h60.224c-0.352-119.964-0.769-253.66-0.769-253.66h107.397v253.66h70.88l22.872 75.45z" horiz-adv-x="261" />
<glyph unicode="&#xe024;" d="M194.959 362.559c0-11.612 0-63.442 0-63.442h-46.48v-77.578h46.48v-230.533h95.483v230.528h64.067c0 0 6 37.197 8.909 77.87-8.341 0-72.617 0-72.617 0s0 45.133 0 53.043c0 7.926 10.409 18.591 20.7 18.591 10.271 0 31.943 0 52.019 0 0 10.563 0 47.058 0 80.763-26.803 0-57.288 0-70.728 0-100.194 0.005-97.833-77.65-97.833-89.241z" />
<glyph unicode="&#xe025;" d="M352 333.405c-0.992-42.8-33.12-78.944-33.12-78.944 0 79.616-62.88 142.944-62.88 142.944s-0.848-47.392-32.688-95.168c-31.84 111.472-127.392 175.168-127.392 175.168 47.776-175.168-15.92-238.88-15.92-366.272 0-74.736 63.264-145.728 160-145.728 143.312 0 171.024 52.608 185.84 111.888 20.416 81.616-10.16 176.496-73.84 256.112zM394.816 85.069c-10.288-41.104-21.904-87.664-154.816-87.664-80.128 0-128 57.824-128 113.728 0 42.816 7.808 77.968 16.064 115.184 10.496 47.184 21.248 95.488 16.592 159.376 49.344-68.304 66.912-158.8 66.912-158.8s45.936 64.496 58.288 94.448c9.456-19.248 18.144-83.936 18.144-147.936 0 0 42.496 35.008 74.368 87.648 33.568-60.192 45.664-123.12 32.448-175.984zM358.912 208.685l-13.6-15.76c-16.848-19.648-32.784-38.272-75.328-59.68-6.096 18.272-11.632 38.384-11.632 69.168v27.344l-24.288-38.048c-8.192-12.976-14.976-23.728-25.088-38.016-15.344 34.592-26.192 60.176-34.432 83.392l-7.664 21.6-8.32-24.16c-10.56-30.736-20.56-59.76-20.56-135.104 0-4.416 3.568-8 8-8 4.4 0 8 3.584 8 8 0 57.744 5.744 86.336 13.44 111.056 8.32-21.152 18.816-45.2 32.592-76l5.632-12.544 8.128 11.072c13.28 18.080 21.184 30.24 29.84 43.888 2.528-23.664 8.368-40.64 14.16-57.44l2.912-8.448 8.096 3.824c43.248 20.544 63.488 39.248 79.552 57.2 2.496-29.824-1.44-62.464-10.784-85.648-1.664-4.096 0.336-8.752 4.432-10.4 0.976-0.384 2-0.576 3.008-0.576 3.152 0 6.16 1.888 7.408 5.008 12.4 30.784 16.128 74.624 9.472 111.712l-2.976 16.56z" />
<glyph unicode="&#xe026;" d="M400 269.405c-35.29 0-64-28.71-64-64s28.71-64 64-64 64 28.71 64 64-28.71 64-64 64zM400 317.405v0c61.855 0 112-50.144 112-112s-50.145-112-112-112-112 50.145-112 112c0 61.856 50.145 112 112 112zM0 205.405c0-61.855 50.144-112 112-112s112 50.145 112 112c0 61.856-50.144 112-112 112s-112-50.144-112-112z" />
<glyph unicode="&#xe027;" d="M408.648 444.373h-375.616v-445.936h445.928v369.616l-70.312 76.32zM387.792 9.941h-263.584v196.744h263.576v-196.744zM469.152 8.253h-71.536v208.24h-283.224v-208.24h-71.536v426.304h361.488l64.808-70.336v-355.968zM159.952 160.341h191.408v-9.792h-184zM159.952 91.301h191.408v-9.824h-184zM114.392 258.981h283.216v139.88h-283.216v-139.88zM124.208 389.045h263.576v-120.248h-263.576v120.248z" />
<glyph unicode="&#xe028;" d="M27.66 349.737c0-43.45 14.511-74.816 43.124-93.248 23.418-15.093 50.624-17.344 64.75-17.344 3.433 0 6.179 0.128 8.105 0.256 0 0-4.486-29.184 17.158-58.071l-0.977 0.012c-37.504-0.012-159.82-7.843-159.82-108.399 0-102.313 112.344-107.509 134.877-107.509 1.763 0 2.792 0.035 2.792 0.035 0.25 0 1.862-0.064 4.602-0.064 14.464 0 51.852 1.815 86.569 18.694 45.032 21.865 67.887 59.887 67.887 113.018 0 51.346-34.805 81.903-60.218 104.238-15.512 13.603-28.911 25.356-28.911 36.782 0 11.642 9.786 20.393 22.161 31.477 20.043 17.926 38.93 43.438 38.93 91.666 0 42.397-5.498 70.854-39.366 88.907 3.531 1.81 16.012 3.125 22.19 3.979 18.362 2.508 45.213 5.353 45.213 20.341v2.897h-133.784c-1.344-0.035-135.285-4.998-135.285-127.668zM243.613 87.546c2.554-40.92-32.442-71.11-84.986-74.933-53.376-3.898-97.32 20.131-99.875 60.992-1.239 19.63 7.395 38.889 24.297 54.202 17.146 15.529 40.68 25.099 66.287 26.99 3.025 0.192 6.022 0.314 9.012 0.314 49.391 0 82.845-29.032 85.266-67.567zM208.68 377.734c13.126-46.161-6.691-94.423-38.272-103.325-3.625-1.018-7.389-1.542-11.183-1.542-28.934 0-57.6 29.272-68.218 69.585-5.934 22.656-5.457 42.45 1.35 61.487 6.691 18.728 18.706 31.377 33.827 35.63 3.636 1.030 7.407 1.553 11.194 1.553 34.938 0.006 57.397-14.481 71.302-63.389zM434.089 277.202v87.272h-55.272v-87.272h-87.272v-55.272h87.272v-87.272h55.272v87.272h87.272v55.272h-87.272z" horiz-adv-x="521" />
<glyph unicode="&#xe029;" d="M467.088 393.165c-58.064 57.536-150.912 58.736-211.056 4.608-60.16 54.128-152.976 52.928-211.072-4.608-59.856-59.264-59.856-155.344 0-214.64 17.104-16.944 176.848-175.056 176.848-175.056 18.928-18.752 49.536-18.752 68.448 0 0 0 174.912 173.152 176.848 175.056 59.872 59.296 59.872 155.376-0.016 214.64zM444.288 201.117l-176.848-175.056c-6.288-6.256-16.544-6.256-22.8 0l-176.848 175.056c-47.2 46.72-47.2 122.736 0 169.456 45.504 45.040 118.656 46.624 166.544 3.552l21.696-19.52 21.68 19.52c47.904 43.072 121.056 41.504 166.56-3.552 47.2-46.704 47.2-122.72 0.016-169.456zM148.048 357.389c-0.032 0-0.032-0.016-0.064-0.016-37.52-0.032-67.936-30.448-67.936-67.984v0c0-4.416 3.584-8 8-8s8 3.584 8 8v0.016c0 28.704 23.28 51.984 51.984 51.984h0.016c4.416 0 8 3.584 8 8s-3.568 8-8 8z" />
<glyph unicode="&#xe02a;" d="M59.552 338.739c-5.898 0-10.666 4.768-10.666 10.667v96c0 5.899 4.768 10.666 10.666 10.666s10.667-4.768 10.667-10.666v-96c0-5.899-4.768-10.666-10.666-10.666zM95.552 338.739c-5.898 0-10.666 4.768-10.666 10.667v104c0 5.899 4.768 10.666 10.666 10.666s10.666-4.768 10.666-10.666v-104c0-5.899-4.768-10.666-10.666-10.666zM131.552 338.739c-5.898 0-10.666 4.768-10.666 10.667v104c0 5.899 4.768 10.666 10.666 10.666s10.667-4.768 10.667-10.666v-104c0-5.899-4.768-10.666-10.666-10.666zM397.781-34.595h-270.666c-80.778 0-127.115 42.517-127.115 116.672v265.995c0 77.354 45.547 129.333 113.334 129.333h294.229c50.23 0 104.438-48.256 104.438-126.229v-267.552c0-66.293-50.166-118.219-114.219-118.219zM113.334 456.072c-67.904 0-92-58.176-92-108v-266.005c0-78.784 57.526-95.328 105.781-95.328h270.666c52.96 0 92.885 41.654 92.885 96.885v267.552c0 64.789-43.136 104.896-83.104 104.896h-294.229zM255.989 314.739c-45.162 0-81.781-36.63-81.781-81.792s36.619-81.771 81.781-81.771 81.781 36.608 81.781 81.77-36.618 81.792-81.781 81.792zM255.989 192.072c-22.582 0-40.896 18.304-40.896 40.885s18.315 40.896 40.896 40.896 40.896-18.315 40.896-40.896-18.315-40.885-40.896-40.885zM255.989 103.176c-71.563 0-129.781 58.219-129.781 129.781s58.219 129.781 129.781 129.781 129.781-58.219 129.781-129.781-58.219-129.781-129.781-129.781zM255.989 341.405c-59.797 0-108.448-48.651-108.448-108.448s48.65-108.448 108.448-108.448 108.448 48.651 108.448 108.448-48.651 108.448-108.448 108.448zM351.99 318.259h149.333v-23.040h-149.333zM15.989 317.949h141.333v-22.421h-138.667zM440.885 369.32c0-12.96-10.517-23.477-23.488-23.477h-34.816c-12.971 0-23.488 10.517-23.488 23.477v34.838c0 12.96 10.517 23.477 23.488 23.477h34.816c12.971 0 23.488-10.517 23.488-23.477v-34.838z" />
<glyph unicode="&#xe02b;" d="M330.912 417.693c-7.568 7.552-17.6 11.712-28.288 11.712s-20.72-4.16-28.32-11.728l-22.56-22.592c-7.568-7.552-11.744-17.6-11.744-28.304 0-7.536 2.064-14.752 5.936-21.008l-217.232-87.024c-14.528-6.384-24.944-19.488-27.872-35.024-2.96-15.632 2-31.664 13.344-42.992l203.52-201.28c8.768-8.768 20.416-13.744 32.72-14.032 0.288-0.016 0.96-0.016 1.248-0.016 3.232 0 6.512 0.336 9.76 0.992 15.904 3.296 28.928 14.288 34.832 29.248l85.472 214.016c6.432-4.24 14-6.512 21.872-6.512 10.72 0 20.752 4.176 28.288 11.728l22.512 22.528c7.632 7.584 11.808 17.648 11.808 28.368s-4.192 20.8-11.712 28.288l-123.584 123.632zM266.544 7.533c-1.984-5.008-6.352-8.704-11.632-9.792-1.216-0.256-2.448-0.352-3.664-0.336-4.064 0.096-7.984 1.728-10.912 4.672l-203.648 201.408c-3.744 3.728-5.392 9.072-4.4 14.288 0.976 5.184 4.464 9.568 9.312 11.68l99.472 39.84c67.024-22.288 134.064-0.816 201.12-72.352l-75.648-189.408zM431.872 260.125l-22.624-22.608c-3.12-3.136-8.192-3.136-11.312 0l-28.288 28.272-22.912-57.424 1.904 4.848c-48.16 48.080-97.104 54.144-141.264 59.568-14.192 1.744-27.952 3.568-41.472 6.48l135.856 54.416-27.44 27.44c-3.12 3.12-3.12 8.192 0 11.312l22.624 22.64c3.12 3.12 8.192 3.12 11.312 0l123.6-123.632c3.168-3.12 3.168-8.192 0.016-11.312zM264 141.405c22.048 0 40 17.936 40 40s-17.936 40-40 40c-22.064 0-40-17.936-40-40s17.952-40 40-40zM264 205.405c13.248 0 24-10.752 24-24s-10.752-24-24-24c-13.264 0-24 10.752-24 24s10.736 24 24 24zM472 477.405c-22.064 0-40-17.936-40-40s17.936-40 40-40 40 17.936 40 40-17.936 40-40 40zM472 413.405c-13.248 0-24 10.752-24 24s10.752 24 24 24 24-10.752 24-24-10.752-24-24-24zM128 205.405c0-17.648 14.352-32 32-32s32 14.352 32 32-14.352 32-32 32-32-14.352-32-32zM160 221.405c8.832 0 16-7.152 16-16s-7.168-16-16-16-16 7.152-16 16 7.168 16 16 16zM192 109.405c0 8.837 7.163 16 16 16s16-7.163 16-16c0-8.837-7.163-16-16-16s-16 7.163-16 16zM448 349.405c0 8.837 7.163 16 16 16s16-7.163 16-16c0-8.837-7.163-16-16-16s-16 7.163-16 16z" />
<glyph unicode="&#xe02c;" d="M502.624 356.045l-96 96c-6 6-14.16 9.36-22.624 9.36h-336c-26.464 0-48-21.52-48-48v-384c0-26.464 21.536-48 48-48h416c26.464 0 48 21.536 48 48v304c0 8.496-3.376 16.64-9.376 22.64zM480 29.405c0-8.848-7.152-16-16-16h-416c-8.848 0-16 7.152-16 16v384c0 8.848 7.152 16 16 16h320v-64h-0.032c0-26.512 21.504-48 48-48h64.032v-288zM431.968 333.405h-16c-17.632 0-32 14.352-32 32h0.032v64l96-96h-48.032zM248 349.405h80c4.4 0 8 3.584 8 8s-3.6 8-8 8h-80c-4.416 0-8-3.568-8-8s3.584-8 8-8zM248 301.405h80c4.4 0 8 3.584 8 8s-3.6 8-8 8h-80c-4.416 0-8-3.584-8-8s3.584-8 8-8zM240 261.405c0-4.416 3.584-8 8-8h192c4.4 0 8 3.584 8 8s-3.6 8-8 8h-192c-4.416 0-8-3.568-8-8zM440 173.405h-368c-4.416 0-8-3.568-8-8 0-4.4 3.584-8 8-8h368c4.4 0 8 3.6 8 8 0 4.432-3.6 8-8 8zM440 125.405h-368c-4.416 0-8-3.568-8-8 0-4.4 3.584-8 8-8h368c4.4 0 8 3.6 8 8 0 4.432-3.6 8-8 8zM440 77.405h-368c-4.416 0-8-3.568-8-8 0-4.4 3.584-8 8-8h368c4.4 0 8 3.6 8 8 0 4.432-3.6 8-8 8zM440 221.405h-368c-4.416 0-8-3.568-8-8s3.584-8 8-8h368c4.4 0 8 3.584 8 8s-3.6 8-8 8zM80 253.405h112c8.848 0 16 7.152 16 16v96c0 8.848-7.152 16-16 16h-112c-8.848 0-16-7.152-16-16v-96c0-8.832 7.152-16 16-16zM96 349.405h80v-64h-80v64z" />
<glyph unicode="&#xe02d;" d="M332.173 466.924v-40.355l-249.694-196.906c-2.434-2.032-3.923-5.050-3.923-8.248s1.489-6.257 3.923-8.248l249.694-196.946v-40.335c0-4.003-2.313-7.705-5.975-9.435-3.581-1.73-7.946-1.288-11.044 1.227l-311.252 245.469c-2.454 2.012-3.902 5.050-3.902 8.248s1.448 6.236 3.902 8.248l311.252 245.489c3.098 2.535 7.464 2.978 11.044 1.227 3.641-1.75 5.975-5.432 5.975-9.435z" horiz-adv-x="332" />
<glyph unicode="&#xe02e;" d="M389.929 208.559h-121.959v121.964h-10.24v-121.964h-121.959v-10.24h121.959v-121.959h10.24v121.959h121.959z" />
<glyph unicode="&#xe02f;" d="M466.624 309.853c-20 5.248-67.024 5.184-135.808 7.008 3.248 15.008 4 28.544 4 52.576 0 57.408-41.824 107.968-78.816 107.968-26.128 0-47.664-21.36-48-47.632-0.352-32.224-10.32-87.872-64-116.096-3.936-2.080-15.2-7.632-16.848-8.352l0.848-0.72c-8.4 7.248-20.048 12.8-32 12.8h-48c-26.464 0-48-21.536-48-48v-256c0-26.464 21.536-48 48-48h48c19.040 0 34.976 11.504 42.688 27.632 0.192-0.064 0.528-0.16 0.752-0.192 1.056-0.288 2.304-0.592 3.824-0.992 0.288-0.080 0.432-0.112 0.736-0.192 9.216-2.288 26.96-6.528 64.88-15.248 8.128-1.856 51.072-11.008 95.552-11.008h87.472c26.656 0 45.872 10.256 57.312 30.848 0.16 0.32 3.84 7.504 6.848 17.216 2.256 7.312 3.088 17.664 0.368 28.16 17.184 11.808 22.72 29.664 26.32 41.28 6.032 19.056 4.224 33.376 0.032 43.632 9.664 9.12 17.904 23.024 21.376 44.256 2.16 13.152-0.16 26.688-6.224 37.952 9.056 10.176 13.184 22.976 13.664 34.816l0.192 3.344c0.112 2.096 0.208 3.392 0.208 8 0 20.208-14 45.984-45.376 54.944zM112 13.405c0-8.848-7.152-16-16-16h-48c-8.848 0-16 7.152-16 16v256c0 8.848 7.152 16 16 16h48c8.848 0 16-7.152 16-16v-256zM479.632 244.845c-0.32-7.904-3.632-23.44-31.632-23.44-24 0-32 0-32 0-4.432 0-8-3.584-8-8s3.568-8 8-8c0 0 7.008 0 31.008 0s27.152-19.904 25.6-29.504c-1.984-11.936-7.584-34.496-34.608-34.496-26.992 0-38 0-38 0-4.432 0-8-3.568-8-8 0-4.4 3.568-8 8-8 0 0 19.008 0 31.504 0 27.008 0 24.624-20.592 20.752-32.88-5.104-16.144-8.224-31.12-42.256-31.12-11.504 0-26.096 0-26.096 0-4.432 0-8-3.568-8-8 0-4.4 3.568-8 8-8 0 0 11.088 0 25.088 0 17.504 0 18.32-16.56 16.496-22.496-2-6.496-4.368-11.312-4.464-11.536-4.832-8.72-12.624-13.968-29.12-13.968h-87.472c-43.936 0-87.52 9.968-88.64 10.224-66.464 15.312-69.968 16.496-74.144 17.68 0 0-13.536 2.288-13.536 14.096l-0.112 220.992c0 7.504 4.784 14.288 12.704 16.672 0.992 0.384 2.336 0.8 3.296 1.2 73.088 30.272 95.344 96.64 96 151.136 0.096 7.664 6 16 16 16 16.912 0 46.816-33.952 46.816-75.968 0-37.936-1.536-44.496-14.816-84.032 160 0 158.88-2.304 172.992-6 17.504-5.008 19.008-19.504 19.008-24.496 0-5.488-0.16-4.688-0.368-10.064zM72 61.405c-13.248 0-24-10.752-24-24s10.752-24 24-24 24 10.752 24 24-10.752 24-24 24zM72 29.405c-4.4 0-8 3.6-8 8s3.6 8 8 8 8-3.6 8-8-3.6-8-8-8z" />
<glyph unicode="&#xe030;" d="M449.93 448.692h-392.719c-18.806 0-34.048-14.776-34.048-33.014v-394.757c0-18.238 15.248-33.029 34.048-33.029h392.719c18.806 0 34.027 14.797 34.027 33.029v394.757c0 18.233-15.222 33.014-34.028 33.014zM162.862 62.972h-69.622v208.046h69.622v-208.046zM128.056 299.439h-0.466c-23.347 0-38.482 15.969-38.482 35.958 0 20.393 15.58 35.927 39.388 35.927 23.813 0 38.462-15.529 38.922-35.927 0-19.993-15.104-35.958-39.363-35.958zM413.834 62.972h-69.601v111.309c0 27.976-10.087 47.058-35.257 47.058-19.257 0-30.684-12.877-35.702-25.303-1.863-4.444-2.32-10.649-2.32-16.855v-116.204h-69.591c0 0 0.911 188.534 0 208.046h69.596v-29.497c9.241 14.172 25.748 34.391 62.715 34.391 45.808 0 80.159-29.716 80.159-93.65v-119.296zM270.51 240.866c0.123 0.195 0.286 0.43 0.45 0.655v-0.655h-0.45z" />
<glyph unicode="&#xe031;" d="M256.032 193.469c52.944 0 96 43.072 96 96s-43.056 96-96 96c-52.944 0-96-43.056-96-96s43.056-96 96-96zM256.032 369.469c44.128 0 80-35.872 80-80s-35.872-80-80-80c-44.128 0-80 35.872-80 80s35.872 80 80 80zM256 477.405c-105.888 0-192-85.056-192-192.016 0-112 96.016-226.576 166.016-307.104 0.256-0.32 11.488-12.88 25.376-12.88 0.032 0 1.168 0 1.232 0 13.872 0 25.12 12.56 25.376 12.88 70.032 80.528 166.032 195.088 166.032 307.104 0 106.96-86.128 192.016-192.032 192.016zM257.872-0.723c-0.336-0.32-1.312-1.024-2.16-1.568-0.16 0.432-1.344 1.376-2.064 2.128-58.64 67.472-157.648 181.344-157.648 285.552 0 88.224 71.792 160.016 160 160.016 88.256 0 160.032-71.792 160.032-160.032 0-104.192-99.008-218.064-158.16-286.096z" />
<glyph unicode="&#xe032;" d="M475.428 38.548c0-20.188-16.365-36.572-36.572-36.572h-365.714c-20.206 0-36.572 16.384-36.572 36.572v365.714c0 20.205 16.365 36.572 36.572 36.572h365.714c20.206 0 36.572-16.365 36.572-36.572v-54.857h36.572v54.857c0 40.393-32.75 73.143-73.143 73.143h-365.714c-40.393 0-73.143-32.749-73.143-73.143v-365.714c0-40.393 32.749-73.143 73.143-73.143h365.714c40.393 0 73.143 32.75 73.143 73.143v54.857h-36.572v-54.857zM566.857 239.691h-394.716l95.872 95.872c7.149 7.131 7.149 18.724 0 25.856-7.149 7.149-18.725 7.149-25.856 0l-126.153-126.171c-3.822-3.804-5.449-8.851-5.193-13.842-0.256-4.992 1.371-10.039 5.175-13.842l126.153-126.153c7.131-7.149 18.725-7.149 25.856 0 7.149 7.132 7.149 18.724 0 25.856l-95.853 95.853h394.716c10.093 0 18.285 8.192 18.285 18.286s-8.192 18.286-18.285 18.286z" horiz-adv-x="585" />
<glyph unicode="&#xe033;" d="M464 477.405h-352c-26.512 0-48-21.472-48-48v-32h-16c-26.512 0-48-21.472-48-48v-320c0-35.344 28.656-64 64-64h384c35.344 0 64 28.656 64 64v400c0 26.528-21.504 48-48 48zM480 29.405c0-17.632-14.368-32-32-32h-384c-17.648 0-32 14.368-32 32v320c0 8.832 7.168 16 16 16h16v-320c0-8.848 7.152-16 16-16s16 7.152 16 16v384c0 8.832 7.168 16 16 16h352c8.816 0 16-7.168 16-16v-400zM311.968 269.325h128c4.432 0 8 3.584 8 8s-3.568 8-8 8h-128c-4.4 0-8-3.584-8-8s3.6-8 8-8zM311.968 317.325h128c4.432 0 8 3.584 8 8s-3.568 8-8 8h-128c-4.4 0-8-3.584-8-8s3.6-8 8-8zM311.968 365.325h128c4.432 0 8 3.584 8 8s-3.568 8-8 8h-128c-4.4 0-8-3.584-8-8s3.6-8 8-8zM264 45.341h-128c-4.416 0-8-3.6-8-8 0-4.432 3.584-8 8-8h128c4.4 0 8 3.568 8 8 0 4.4-3.584 8-8 8zM264 93.341h-128c-4.416 0-8-3.6-8-8 0-4.432 3.584-8 8-8h128c4.4 0 8 3.568 8 8 0 4.4-3.584 8-8 8zM264 141.341h-128c-4.416 0-8-3.6-8-8 0-4.432 3.584-8 8-8h128c4.4 0 8 3.568 8 8 0 4.4-3.584 8-8 8zM440 45.341h-128c-4.432 0-8-3.6-8-8 0-4.432 3.568-8 8-8h128c4.4 0 8 3.568 8 8 0 4.4-3.6 8-8 8zM440 93.341h-128c-4.432 0-8-3.6-8-8 0-4.432 3.568-8 8-8h128c4.4 0 8 3.568 8 8 0 4.4-3.6 8-8 8zM440 141.341h-128c-4.432 0-8-3.6-8-8 0-4.432 3.568-8 8-8h128c4.4 0 8 3.568 8 8 0 4.4-3.6 8-8 8zM440 237.341h-304c-4.416 0-8-3.584-8-8s3.584-8 8-8h304c4.4 0 8 3.584 8 8s-3.6 8-8 8zM440 189.341h-304c-4.416 0-8-3.6-8-8 0-4.432 3.584-8 8-8h304c4.4 0 8 3.568 8 8 0 4.4-3.6 8-8 8zM144 269.405h112c8.848 0 16 7.152 16 16v111.936c0 8.848-7.152 16-16 16h-112c-8.848 0-16-7.152-16-16v-111.936c0-8.832 7.152-16 16-16zM160 381.405h80v-80h-80v80z" />
<glyph unicode="&#xe034;" d="M238.445 221.405l-230.408-256.005-8.037 7.236 223.881 248.769-223.886 248.769 8.037 7.231 230.413-256z" horiz-adv-x="238" />
<glyph unicode="&#xe035;" d="M472 141.405h-43.056c-0.72 3.824-1.6 7.568-2.56 11.296l76.784 38.384c7.904 3.952 11.088 13.568 7.152 21.472-3.968 7.904-13.536 11.072-21.472 7.152l-73.248-36.608c-27.936 60.288-88.88 102.304-159.6 102.304-86.112 0-157.84-62.208-172.944-144h-43.056c-22.048 0-40-17.936-40-40 0-7.84 2.88-15.408 8.080-21.264l55.92-62.912v-11.824c0-22.064 17.952-40 40-40h304c22.064 0 40 17.936 40 40v11.824l55.904 62.912c5.216 5.856 8.096 13.424 8.096 21.264 0 22.064-17.936 40-40 40zM412.784 141.405h-8.992l7.968 4c0.304-1.344 0.736-2.64 1.024-4zM256 269.405c64.464 0 120-38.4 145.312-93.456l-14.256-7.12c-22.656 49.84-72.736 84.576-131.056 84.576-68.512 0-125.744-47.888-140.32-112h-16.448c14.864 72.944 79.504 128 156.768 128zM329.216 141.405c-12.368 28.208-40.496 48-73.216 48s-60.832-19.792-73.216-48h-17.184c13.216 37.216 48.688 64 90.4 64 39.44 0 73.408-23.936 88.128-58.032l-11.904-5.968h-3.008zM256 157.405c-14.128 0-26.72-6.256-35.52-16h-19.584c11.104 19.024 31.52 32 55.104 32 23.568 0 44-12.976 55.088-32h-19.6c-8.768 9.744-21.36 16-35.488 16zM256 221.405c-50.64 0-93.472-33.792-107.28-80h-16.512c14.272 55.104 64.272 96 123.792 96 51.936 0 96.688-31.168 116.72-75.744l-14.288-7.136c-17.408 39.312-56.752 66.88-102.432 66.88zM416 29.405v-24c0-4.416-3.6-8-8-8h-304c-4.416 0-8 3.584-8 8v24l-64 72c0 4.416 3.584 8 8 8h432c4.4 0 8-3.584 8-8l-64-72zM127.632 290.013c0.048-0.096 0.080-0.192 0.128-0.288 0 0 0.016 0 0.032 0 1.328-2.56 3.984-4.32 7.088-4.32 4.432 0 8.032 3.616 8.032 8.048 0 0.688-0.112 1.36-0.288 2 0.032 0.112 0.032 0.208 0 0.32-6 14.112-0.304 29.6 6.704 46.272 7.568 18.016 15.68 38.016 6.752 58.352-1.136 2.928-3.968 5.008-7.296 5.008-4.336 0-7.84-3.52-7.84-7.84 0-0.96 0.192-1.856 0.512-2.704 0-0.032 0-0.064 0.016-0.096 0.016-0.048 0.032-0.096 0.048-0.144 0.032-0.064 0.048-0.128 0.080-0.192 6.464-14.544 0.208-29.456-6.848-46.288-7.456-17.744-15.712-37.408-7.408-57.456 0.096-0.24 0.176-0.448 0.288-0.672zM322.464 292.349c0.064-0.096 0.096-0.192 0.128-0.288h0.032c1.344-2.56 4-4.336 7.088-4.336 4.432 0 8.064 3.616 8.064 8.048 0 0.688-0.128 1.36-0.288 2 0.032 0.112 0.032 0.208-0.032 0.32-5.968 14.112-0.288 29.6 6.72 46.272 7.568 18.016 15.68 38.016 6.752 58.352-1.152 2.944-3.968 5.008-7.312 5.008-4.32 0-7.84-3.52-7.84-7.84 0-0.96 0.224-1.856 0.528-2.704 0-0.032 0-0.064 0-0.096 0.032-0.048 0.032-0.096 0.064-0.144 0.032-0.064 0.064-0.128 0.064-0.192 6.464-14.544 0.224-29.456-6.848-46.288-7.44-17.744-15.68-37.424-7.376-57.472 0.080-0.208 0.16-0.432 0.256-0.64zM240.304 362.013c0.048-0.096 0.080-0.192 0.128-0.288 0 0 0.016 0 0.032 0 1.344-2.56 4-4.336 7.088-4.336 4.432 0 8.032 3.616 8.032 8.048 0 0.688-0.112 1.36-0.288 2 0.032 0.112 0.032 0.208 0 0.32-6 14.112-0.304 29.6 6.704 46.272 7.568 18.016 15.68 38.016 6.752 58.352-1.152 2.944-3.968 5.024-7.312 5.024-4.32 0-7.84-3.52-7.84-7.84 0-0.96 0.192-1.856 0.512-2.704 0-0.032 0-0.064 0.016-0.096 0.016-0.048 0.032-0.096 0.048-0.144 0.016-0.064 0.048-0.128 0.064-0.192 6.464-14.544 0.208-29.456-6.848-46.288-7.456-17.744-15.712-37.424-7.392-57.472 0.112-0.224 0.192-0.432 0.304-0.656z" />
<glyph unicode="&#xe036;" d="M500.576 469.901c-5.808 4.88-13.088 7.504-20.56 7.504l-5.584-0.496-272.016-48c-15.296-2.688-26.432-15.968-26.432-31.504v-274.72c-16.24 11.776-37.312 18.72-60.704 18.72-13.6 0-27.2-2.256-40.464-6.656-30.368-10.128-54.72-30.432-66.816-55.744-9.344-19.568-10.544-40.848-3.424-59.936 12.176-32.608 46.768-53.664 88.128-53.664 13.6 0 27.2 2.224 40.448 6.656 30.352 10.096 54.704 30.4 66.8 55.68 5.2 10.912 7.632 22.336 7.728 33.664h0.288v256l5.568 0.464 266.48 47.024v-194.208c-16.272 11.776-37.312 18.72-60.72 18.72-13.616 0-27.216-2.256-40.464-6.656-30.352-10.128-54.72-30.432-66.784-55.744-9.344-19.568-10.56-40.848-3.44-59.936 12.192-32.608 46.752-53.664 88.128-53.664 13.616 0 27.216 2.224 40.464 6.656 30.336 10.096 54.688 30.4 66.784 55.68 5.216 10.912 7.648 22.336 7.728 33.664h0.304v336c0 9.44-4.208 18.432-11.44 24.496zM123.008 2.397c-38.336-12.784-77.968-0.304-88.464 27.824-10.528 28.176 12.016 61.344 50.336 74.144 38.336 12.784 77.968 0.32 88.464-27.84 10.544-28.144-12-61.344-50.336-74.128zM479.36 397.405l-272.032-48v48l272.032 48v-48zM426.432 50.397c-38.352-12.784-78-0.304-88.48 27.824-10.528 28.176 12.032 61.344 50.336 74.144 38.368 12.784 78 0.32 88.496-27.84 10.544-28.144-11.984-61.344-50.352-74.128z" />
<glyph unicode="&#xe037;" d="M448 397.405h-384c-35.344 0-64-28.672-64-64v-208c0-35.344 28.656-64 64-64h384c35.344 0 64 28.656 64 64v208c0 35.328-28.656 64-64 64zM32 313.405l111.984-84-111.984-84v168zM480 125.405c0-17.664-14.368-32-32-32h-384c-17.648 0-32 14.336-32 32l125.312 94 69.888-52.432c8.528-6.368 18.656-9.6 28.8-9.6 10.128 0 20.256 3.216 28.784 9.6l69.904 52.432 125.312-94zM480 145.405l-112 84 112 84v-168zM275.184 179.773c-5.584-4.192-12.208-6.4-19.184-6.4s-13.616 2.224-19.2 6.4l-204.8 153.632c0 17.648 14.352 32 32 32h384c17.632 0 32-14.352 32-32l-204.816-153.632z" />
<glyph unicode="&#xe038;" d="M469.808 403.213c-56.224 56.256-147.408 56.256-203.632 0l-233.44-230.672c-43.664-43.664-43.664-114.736 0-158.4s114.72-43.664 158.368 0l233.44 230.688c31.248 31.248 31.248 81.888 0 113.136-31.248 31.232-81.904 31.232-113.12 0l-175.488-175.488c-6.256-6.272-6.256-16.368 0-22.64 6.256-6.256 16.368-6.256 22.624 0l175.504 175.504c18.72 18.704 49.152 18.704 67.872 0 18.72-18.72 18.72-49.168 0-67.888l-233.44-230.672c-31.248-31.248-81.872-31.248-113.12 0-31.248 31.232-31.248 81.888 0 113.12l231.152 228.432c43.744 43.744 114.688 43.744 158.368 0 43.776-43.76 43.776-114.64 0.032-158.384l-173.216-173.232c-6.288-6.272-6.288-16.368 0-22.624 6.256-6.272 16.368-6.272 22.624 0l175.472 175.488c56.256 56.224 56.256 147.408 0 203.632z" />
<glyph unicode="&#xe039;" d="M504.688 474.845c-2.656 1.712-5.68 2.56-8.688 2.56-3.088 0-6.192-0.88-8.88-2.688l-480-320c-4.944-3.28-7.664-9.056-7.024-14.976 0.608-5.904 4.448-11.008 9.968-13.184l125.184-50.096 58.864-103.008c2.816-4.944 8.048-8 13.712-8.064 0.064 0 0.112 0 0.176 0 5.616 0 10.832 2.976 13.712 7.776l33.232 55.408 155.12-62.032c1.904-0.768 3.904-1.136 5.936-1.136 2.72 0 5.408 0.688 7.84 2.064 4.224 2.368 7.12 6.528 7.936 11.312l80 480c1.040 6.288-1.744 12.592-7.088 16.064zM50.176 144.973l370.8 247.216-269.6-288.592c-1.424 0.848-2.688 1.968-4.256 2.592l-96.944 38.784zM163.024 92.349c-0.032 0.064-0.080 0.096-0.112 0.16l303.088 324.4-258.384-402.592-44.592 78.032zM403.472 3.661l-136.656 54.656c-3.248 1.28-6.624 1.712-9.968 1.904l210.432 326.208-63.808-382.768z" />
<glyph unicode="&#xe03a;" d="M128 381.069v48.336c0 26.464-21.536 48-48 48s-48-21.536-48-48v-48.336c-19.328-14.64-32-37.568-32-63.664s12.672-49.024 32-63.632v-240.368c0-26.464 21.536-48 48-48s48 21.536 48 48v240.368c19.328 14.592 32 37.536 32 63.632s-12.672 49.024-32 63.664zM64 429.405c0 8.848 7.152 16 16 16s16-7.152 16-16v-33.6c-5.168 1.040-10.512 1.6-16 1.6s-10.832-0.56-16-1.6v33.6zM96 13.405c0-8.848-7.152-16-16-16s-16 7.152-16 16v225.632c5.168-1.072 10.512-1.632 16-1.632s10.832 0.56 16 1.632v-225.632zM125.84 303.965c-0.256-0.848-0.48-1.68-0.784-2.528-1.52-4.224-3.472-8.224-6.048-11.776-0.064-0.096-0.16-0.16-0.224-0.256-2.784-3.808-6.096-7.184-9.856-10.032-0.064-0.064-0.112-0.096-0.16-0.128-3.856-2.912-8.16-5.248-12.784-6.88-5.008-1.808-10.336-2.96-15.984-2.96s-10.976 1.152-16 2.976c-4.624 1.632-8.928 3.968-12.784 6.88-0.048 0.032-0.096 0.064-0.16 0.128-3.76 2.848-7.072 6.224-9.856 10.032-0.064 0.096-0.16 0.16-0.224 0.256-2.576 3.568-4.528 7.568-6.048 11.776-0.304 0.848-0.528 1.68-0.784 2.528-1.264 4.272-2.144 8.736-2.144 13.424 0 4.72 0.88 9.184 2.16 13.472 0.256 0.848 0.48 1.68 0.784 2.496 1.504 4.224 3.456 8.224 6.048 11.808 0.064 0.096 0.16 0.16 0.224 0.256 2.784 3.776 6.096 7.184 9.856 10.032 0.064 0.032 0.112 0.096 0.16 0.128 3.84 2.864 8.144 5.216 12.768 6.864 5.024 1.792 10.352 2.944 16 2.944s10.976-1.152 16-2.944c4.624-1.664 8.928-4 12.784-6.88 0.048-0.032 0.096-0.096 0.16-0.128 3.76-2.848 7.072-6.256 9.856-10.032 0.064-0.096 0.16-0.16 0.224-0.256 2.576-3.568 4.528-7.568 6.032-11.792 0.304-0.816 0.544-1.648 0.784-2.496 1.28-4.288 2.16-8.752 2.16-13.472 0-4.688-0.88-9.152-2.16-13.44zM480 381.069v48.336c0 26.464-21.536 48-48 48s-48-21.536-48-48v-48.336c-19.344-14.64-32-37.568-32-63.664s12.656-49.024 32-63.632v-240.368c0-26.464 21.536-48 48-48s48 21.536 48 48v240.368c19.312 14.592 32 37.536 32 63.632s-12.688 49.024-32 63.664zM416 429.405c0 8.848 7.152 16 16 16s16-7.152 16-16v-33.6c-5.184 1.040-10.528 1.6-16 1.6-5.504 0-10.848-0.56-16-1.6v33.6zM448 13.405c0-8.848-7.152-16-16-16s-16 7.152-16 16v225.632c5.152-1.072 10.496-1.632 16-1.632 5.472 0 10.816 0.56 16 1.632v-225.632zM477.84 303.965c-0.256-0.848-0.496-1.68-0.784-2.528-1.536-4.224-3.472-8.224-6.064-11.776-0.064-0.096-0.16-0.16-0.224-0.256-2.784-3.808-6.096-7.184-9.84-10.032-0.064-0.064-0.128-0.096-0.16-0.128-3.872-2.912-8.16-5.248-12.784-6.88-5.008-1.808-10.352-2.96-15.984-2.96-5.664 0-10.976 1.152-16 2.976-4.624 1.632-8.944 3.968-12.784 6.88-0.064 0.032-0.096 0.064-0.16 0.128-3.776 2.848-7.088 6.224-9.872 10.032-0.064 0.096-0.16 0.16-0.224 0.256-2.56 3.568-4.528 7.568-6.032 11.776-0.32 0.848-0.528 1.68-0.784 2.528-1.264 4.272-2.144 8.736-2.144 13.424 0 4.72 0.88 9.184 2.16 13.472 0.256 0.848 0.464 1.68 0.784 2.496 1.504 4.224 3.472 8.224 6.032 11.808 0.064 0.096 0.16 0.16 0.224 0.256 2.784 3.776 6.096 7.184 9.872 10.032 0.064 0.032 0.096 0.096 0.16 0.128 3.84 2.88 8.16 5.216 12.784 6.88 5.008 1.776 10.32 2.928 15.984 2.928 5.632 0 10.976-1.152 16-2.944 4.624-1.664 8.912-4 12.784-6.88 0.032-0.032 0.096-0.096 0.16-0.128 3.744-2.848 7.056-6.256 9.84-10.032 0.064-0.096 0.16-0.16 0.224-0.256 2.592-3.6 4.528-7.6 6.064-11.808 0.288-0.816 0.528-1.664 0.784-2.496 1.264-4.272 2.144-8.736 2.144-13.456 0-4.688-0.88-9.152-2.16-13.44zM304 189.069v240.336c0 26.464-21.536 48-48 48s-48-21.536-48-48v-240.336c-19.328-14.624-32-37.568-32-63.664s12.672-49.024 32-63.632v-48.368c0-26.464 21.536-48 48-48s48 21.536 48 48v48.368c19.312 14.592 32 37.536 32 63.632s-12.688 49.024-32 63.664zM240 429.405c0 8.848 7.152 16 16 16s16-7.152 16-16v-225.6c-5.184 1.024-10.528 1.6-16 1.6-5.488 0-10.832-0.56-16-1.6v225.6zM272 13.405c0-8.848-7.152-16-16-16s-16 7.152-16 16v33.632c5.168-1.072 10.512-1.632 16-1.632 5.472 0 10.816 0.56 16 1.632v-33.632zM301.84 111.965c-0.256-0.848-0.496-1.68-0.784-2.528-1.536-4.224-3.472-8.224-6.064-11.776-0.064-0.096-0.16-0.16-0.224-0.256-2.784-3.808-6.096-7.184-9.84-10.032-0.064-0.064-0.128-0.096-0.16-0.128-3.872-2.912-8.16-5.248-12.784-6.88-5.008-1.808-10.352-2.96-15.984-2.96-5.648 0-10.976 1.152-16 2.976-4.624 1.632-8.928 3.968-12.784 6.88-0.048 0.032-0.096 0.064-0.16 0.128-3.76 2.848-7.072 6.224-9.856 10.032-0.064 0.096-0.16 0.16-0.224 0.256-2.576 3.568-4.528 7.568-6.048 11.776-0.304 0.848-0.528 1.68-0.784 2.528-1.264 4.272-2.144 8.736-2.144 13.424 0 4.72 0.88 9.184 2.16 13.472 0.256 0.848 0.48 1.68 0.784 2.496 1.52 4.224 3.472 8.224 6.048 11.808 0.064 0.096 0.16 0.16 0.224 0.256 2.784 3.776 6.096 7.184 9.856 10.032 0.064 0.032 0.112 0.096 0.16 0.128 3.856 2.88 8.16 5.216 12.784 6.88 5.008 1.776 10.336 2.928 15.984 2.928 5.632 0 10.976-1.152 16-2.944 4.624-1.664 8.912-4 12.784-6.88 0.032-0.032 0.096-0.096 0.16-0.128 3.744-2.848 7.056-6.256 9.84-10.032 0.064-0.096 0.16-0.16 0.224-0.256 2.592-3.6 4.528-7.6 6.064-11.808 0.288-0.816 0.528-1.664 0.784-2.496 1.264-4.272 2.144-8.736 2.144-13.456 0-4.688-0.88-9.152-2.16-13.44z" />
<glyph unicode="&#xe03b;" d="M470.32 436.125c-26.32 26.288-60.976 41.28-95.136 41.28-28.816 0-55.344-10.688-74.72-30.032l-77.872-78.464c-0.24-0.224-0.512-0.368-0.752-0.608-0.128-0.128-0.208-0.304-0.336-0.416l0.032-0.032-165.264-166.544c-7.616-7.568-13.136-16.992-16.208-27.28l-37.584-136.128c-0.032-0.368-2.48-11.056-2.48-16.496 0-30.912 25.104-56 56.064-56 6.16 0 18.080 2.944 18.512 3.008l135.648 35.664c10.304 3.056 19.664 8.624 27.28 16.256l244.208 246.128c44.416 44.448 39.408 118.944-11.392 169.664zM256.224 96.685c-1.312 14.432-5.392 28.592-11.504 42.032l151.28 151.264c9.248-29.216 4.496-59.776-15.776-80.064-0.128-0.128-0.288-0.208-0.4-0.336l0.224-0.208-123.648-124.64c0 3.984 0.192 7.888-0.176 11.952zM236.688 153.309c-5.968 9.808-12.752 19.28-21.152 27.664-9.776 9.776-20.992 17.44-32.704 23.872l152.512 152.512c11.968-5.312 23.44-12.88 33.568-23.008 8.656-8.624 15.344-18.288 20.496-28.336l-152.72-152.704zM167.776 212.413c-14.816 5.968-30.336 9.376-45.888 9.584l123.248 124.192c18.864 18.4 46.336 23.696 73.392 16.992l-150.752-150.768zM66.672-0.563c-1.744-0.4-7.168-1.776-10.848-2.032-13.152 0.16-23.824 10.848-23.824 24 0.192 2.688 1.264 7.312 1.632 8.992l16.848 61.024c18.288 0.496 37.968-6.624 53.44-22.128 15.712-15.68 23.104-35.744 22.304-54.256l-59.552-15.6zM141.984 19.213c-0.384 21.472-9.12 43.808-26.752 61.408-16.672 16.688-38.496 26.32-60.256 27.184l15.936 57.712c1.152 3.84 3.44 7.632 6.256 10.944 32.096 22.976 81.456 16.192 115.744-18.128 36.272-36.256 41.872-89.376 13.936-121.088-1.856-0.976-3.728-1.904-5.744-2.496l-59.12-15.536zM459.056 289.053l-26.944-27.152c0 3.616 0.432 7.088 0.096 10.784-2.816 30.96-17.248 60.896-40.688 84.304-26.064 26.080-60.624 41.040-94.848 41.136l26.496 26.72c13.264 13.232 31.776 20.56 52.016 20.56 25.744 0 52.192-11.648 72.528-31.92 19.088-19.056 30.464-42.736 32.096-66.688 1.504-22.352-5.872-42.848-20.752-57.744z" />
<glyph unicode="&#xe03c;" d="M240 21.469c0 4.432 3.584 8 8 8h16c4.4 0 8-3.568 8-8 0-4.4-3.6-8-8-8h-16c-4.416 0-8 3.6-8 8zM280 429.405h-48c-4.432 0-8-3.568-8-8 0-4.416 3.568-8 8-8h48c4.4 0 8 3.584 8 8 0 4.432-3.6 8-8 8zM432 429.405v-416c0-26.496-21.504-48-48-48h-256c-26.512 0-48 21.472-48 48v416c0 26.512 21.472 48 48 48h256c26.496 0 48-21.472 48-48zM400 45.469h-288v-32.064c0-8.848 7.168-16 16-16h256c8.816 0 16 7.184 16 16v32.064zM400 381.405h-288v-319.936h288v319.936zM400 429.405c0 8.832-7.184 16-16 16h-256c-8.832 0-16-7.168-16-16v-32h288v32z" />
<glyph unicode="&#xe03d;" d="M432 477.405h-352c-35.344 0-64-28.656-64-64v-384c0-35.344 28.656-64 64-64h352c35.344 0 64 28.656 64 64v384c0 35.344-28.656 64-64 64zM464 29.405c0-17.632-14.368-32-32-32h-352c-17.648 0-32 14.368-32 32v384c0 17.648 14.352 32 32 32h352c17.632 0 32-14.352 32-32v-384zM416 413.405h-320c-8.848 0-16-7.152-16-16v-288c0-8.848 7.152-16 16-16h320c8.848 0 16 7.152 16 16v288c0 8.848-7.152 16-16 16zM416 397.405v-221.904l-52 56.48c-3.056 3.456-7.408 5.424-12 5.424s-8.976-1.968-12-5.424l-41.664-47.2-126.336 143.2c-3.040 3.456-7.408 5.424-12 5.424s-8.96-1.968-12-5.424l-52-59.968v129.392h320zM96 243.805l64 73.6 138.336-156.816 44.192-51.184h-246.528v134.4zM363.84 109.405l-54.848 63.28 43.008 48.72 64-70.064v-41.936h-52.16zM320 269.405c26.496 0 48 21.488 48 48s-21.504 48-48 48c-26.528 0-48-21.488-48-48s21.472-48 48-48zM320 349.405c17.632 0 32-14.352 32-32s-14.368-32-32-32c-17.664 0-32 14.352-32 32s14.336 32 32 32z" />
<glyph unicode="&#xe03e;" d="M256 477.405c-141.385 0-256-114.615-256-256s114.613-256 256-256c141.385 0 256 114.615 256 256s-114.615 256-256 256zM280.822 135.346c-23.26 1.807-33.021 13.328-51.252 24.404-10.030-52.589-22.282-103.009-58.57-129.344-11.202 79.484 16.447 139.182 29.285 202.557-21.892 36.853 2.635 111.017 48.81 92.737 56.813-22.474-49.2-137.004 21.965-151.308 74.311-14.934 104.645 128.929 58.571 175.712-66.579 67.553-193.799 1.54-178.155-95.178 3.807-23.646 28.236-30.819 9.762-63.451-42.61 9.446-55.325 43.051-53.688 87.856 2.634 73.337 65.892 124.682 129.343 131.783 80.242 8.982 155.553-29.454 165.953-104.938 11.707-85.194-36.223-177.464-122.024-170.83z" />
<glyph unicode="&#xe03f;" d="M571.883 268.26c-5.334 5.334-11.811 7.999-19.432 7.999h-118.858v118.861c0 7.617-2.668 14.094-7.999 19.428-5.334 5.33-11.808 7.999-19.431 7.999h-54.854c-7.617 0-14.094-2.665-19.428-7.999s-7.999-11.811-7.999-19.428v-118.861h-118.858c-7.617 0-14.094-2.665-19.428-7.999s-7.999-11.808-7.999-19.428v-54.861c0-7.62 2.665-14.094 7.999-19.425 5.334-5.334 11.811-7.999 19.428-7.999h118.858v-118.865c0-7.617 2.665-14.098 7.999-19.428s11.811-7.995 19.428-7.995h54.858c7.624 0 14.098 2.665 19.432 7.995 5.334 5.334 7.999 11.811 7.999 19.428v118.865h118.857c7.62 0 14.097 2.665 19.432 7.999 5.331 5.33 7.999 11.804 7.999 19.425v54.861c-0.004 7.62-2.665 14.097-8.003 19.428z" horiz-adv-x="757" />
<glyph unicode="&#xe040;" d="M512 247.114v-51.391h-230.313v-230.313h-51.363v230.313h-230.324v51.39h230.324v230.291h51.363v-230.291h230.313z" />
<glyph unicode="&#xe041;" d="M256 477.405c-141.392 0-256-114.608-256-256s114.608-256 256-256c141.376 0 256 114.608 256 256s-114.608 256-256 256zM256-2.595c-123.712 0-224 100.288-224 224s100.288 224 224 224c123.712 0 224-100.288 224-224s-100.288-224-224-224zM360.304 237.021h-88.688v88.688c0 8.624-6.992 15.632-15.632 15.632s-15.632-6.992-15.632-15.632v-88.688h-88.656c-8.624 0-15.616-6.992-15.616-15.632 0-8.624 6.992-15.632 15.616-15.632h88.688v-88.688c0-8.624 6.992-15.632 15.632-15.632 8.624 0 15.632 6.992 15.632 15.632v88.688h88.688c8.624 0 15.632 6.992 15.632 15.632-0.032 8.64-7.024 15.648-15.664 15.632z" />
<glyph unicode="&#xe042;" d="M14.553 221.405l223.891-248.764-8.036-7.236-230.408 256 230.408 256 8.036-7.237-223.891-248.763z" horiz-adv-x="238" />
<glyph unicode="&#xe043;" d="M75.965 117.293c-41.889 0-75.965-34.055-75.965-75.986 0-41.784 34.076-75.902 75.965-75.902s75.965 34.097 75.965 75.902c0 41.931-34.076 75.986-75.965 75.986zM7.897 310.164c-4.338 0-7.897-3.559-7.897-7.94v-96.414c0-4.339 3.559-7.877 7.897-7.877 123.814 0 224.609-100.753 224.609-224.609 0-4.317 3.496-7.898 7.898-7.898h96.815c4.401 0 7.94 3.581 7.94 7.898l-0.379 2.464c-1.39 184.574-152.035 334.377-336.882 334.377zM512-24.212c-1.369 276.882-227.031 501.617-504.103 501.617-4.338 0-7.897-3.559-7.897-7.94v-99.216c0-4.359 3.559-7.897 7.897-7.897 214.522 0 389.028-174.528 389.028-389.049 0-4.317 3.538-7.898 7.856-7.898h99.679c4.317 0 7.982 3.581 7.982 7.898l-0.442 2.485z" />
<glyph unicode="&#xe044;" d="M304 317.405c8.832 0 16 7.168 16 16v64c0 8.832-7.168 16-16 16s-16-7.168-16-16v-64c0-8.832 7.168-16 16-16zM448 477.405h-384c-35.344 0-64-28.656-64-64v-384c0-35.344 28.656-64 64-64h384c35.344 0 64 28.656 64 64v384c0 35.344-28.656 64-64 64zM128 445.405h256v-144c0-8.832-7.168-16-16-16h-224c-8.832 0-16 7.168-16 16v144zM480 29.405c0-17.68-14.32-32-32-32h-384c-17.68 0-32 14.32-32 32v384c0 17.68 14.32 32 32 32h32v-160c0-17.664 14.32-32 32-32h256c17.68 0 32 14.336 32 32v160h32c17.68 0 32-14.336 32-32v-384z" />
<glyph unicode="&#xe045;" d="M320 477.325c-106.032 0-192-85.968-192-192 0-32.416 8.112-62.928 22.32-89.728l-133.504-133.472 0.112-0.096c-10.432-10.256-16.928-24.464-16.928-40.256 0-31.184 25.28-56.464 56.464-56.464 15.76 0 29.984 6.496 40.24 16.944l-0.032 0.032 133.456 133.44c26.816-14.256 57.376-22.4 89.872-22.4 106.032 0 192 85.968 192 192s-85.968 192-192 192zM76.72 2.253c-5.152-5.344-12.288-8.688-20.256-8.688-15.6 0-28.24 12.624-28.24 28.224 0 7.968 3.36 15.088 8.688 20.256l-0.144 0.128 129.056 129.056c11.28-15.216 24.72-28.656 39.904-39.968l-129.008-129.008zM320 125.309c-88.352 0-160 71.664-160 160 0 88.352 71.648 160 160 160 88.336 0 160-71.648 160-160 0-88.336-71.664-160-160-160zM320 397.325c-61.872 0-112-50.144-112-112 0-4.416 3.584-8 8-8s8 3.584 8 8c0 53.008 42.976 96 96 96 4.4 0 8 3.584 8 8s-3.6 8-8 8z" />
<glyph unicode="&#xe046;" d="M511.44 224.989c-0.16 0.672-0.064 1.392-0.32 2.048-0.096 0.272-0.336 0.416-0.432 0.672-0.16 0.384-0.128 0.816-0.336 1.184-46.4 88.816-147.408 152.448-253.968 152.448-106.576 0-207.568-63.536-254-152.336-0.208-0.368-0.176-0.8-0.336-1.184-0.112-0.256-0.336-0.4-0.432-0.672-0.256-0.656-0.16-1.376-0.32-2.048-0.288-1.2-0.56-2.352-0.56-3.584s0.288-2.368 0.56-3.584c0.16-0.672 0.064-1.392 0.32-2.048 0.096-0.272 0.336-0.416 0.432-0.672 0.16-0.384 0.128-0.816 0.336-1.184 46.416-88.816 147.424-152.448 254-152.448 106.56 0 207.568 63.536 253.968 152.336 0.224 0.368 0.192 0.8 0.336 1.184 0.096 0.256 0.336 0.4 0.432 0.672 0.256 0.656 0.16 1.376 0.32 2.048 0.272 1.216 0.56 2.368 0.56 3.584s-0.288 2.384-0.56 3.584zM256.368 93.597c-89.84 0-177.792 51.056-221.616 127.92 44.064 76.96 131.888 127.84 221.616 127.84 89.808 0 177.776-51.072 221.6-127.92-44.064-76.976-131.872-127.84-221.6-127.84zM256.368 285.421c-0.032 0-0.064-0.016-0.096-0.016-35.28-0.064-63.872-28.656-63.872-63.936 0-4.416 3.584-8 8-8 4.4 0 7.984 3.584 7.984 8 0 26.432 21.52 47.952 47.984 47.952v0.016c4.4 0 7.968 3.584 7.968 7.984 0 4.432-3.552 8-7.968 8zM256 333.405c-61.872 0-112-50.144-112-112s50.144-112 112-112c61.84 0 112 50.16 112 112 0 61.872-50.16 112-112 112zM256 125.405c-52.944 0-96 43.056-96 96s43.056 96 96 96c52.944 0 96-43.056 96-96s-43.056-96-96-96z" />
<glyph unicode="&#xe047;" d="M486.256 274.525l-49.024 9.824c-2.464 7.088-5.376 13.968-8.592 20.624l27.776 41.664c8.464 12.688 6.784 29.6-4 40.368l-30.784 30.784c-6.192 6.192-14.368 9.376-22.656 9.376-6.128 0-12.32-1.76-17.712-5.376l-41.664-27.76c-6.688 3.232-13.568 6.112-20.656 8.576l-9.824 49.040c-2.976 14.976-16.128 25.728-31.376 25.728h-43.52c-15.248 0-28.384-10.768-31.376-25.728l-9.824-49.040c-7.088-2.464-13.968-5.36-20.624-8.576l-41.648 27.76c-5.424 3.616-11.6 5.376-17.744 5.376-8.272 0-16.448-3.184-22.64-9.376l-30.768-30.784c-10.784-10.784-12.464-27.68-4-40.368l27.76-41.664c-3.232-6.672-6.112-13.552-8.576-20.64l-49.056-9.808c-14.96-2.992-25.728-16.128-25.728-31.376v-43.52c0-15.248 10.768-28.4 25.728-31.376l49.040-9.84c2.464-7.088 5.36-13.968 8.576-20.624l-27.744-41.664c-8.464-12.688-6.784-29.6 4-40.368l30.784-30.784c6.192-6.192 14.368-9.376 22.64-9.376 6.144 0 12.336 1.776 17.728 5.376l41.664 27.776c6.672-3.248 13.552-6.128 20.64-8.592l9.808-49.024c2.992-14.976 16.128-25.744 31.376-25.744h43.52c15.248 0 28.4 10.784 31.376 25.744l9.84 49.024c7.088 2.464 13.968 5.376 20.624 8.592l41.664-27.776c5.408-3.6 11.6-5.376 17.712-5.376 8.288 0 16.464 3.184 22.656 9.376l30.784 30.784c10.784 10.784 12.464 27.68 4 40.368l-27.776 41.664c3.248 6.688 6.128 13.568 8.592 20.656l49.024 9.808c14.96 2.96 25.744 16.128 25.744 31.376v43.52c0 15.248-10.784 28.384-25.744 31.376zM430.944 189.805c-11.12-2.224-20.224-10.16-23.936-20.88-2.064-5.904-4.464-11.632-7.152-17.184-4.976-10.224-4.128-22.288 2.16-31.712l27.776-41.664-30.784-30.784-41.664 27.776c-5.344 3.568-11.536 5.376-17.744 5.376-4.752 0-9.536-1.056-13.936-3.184-5.568-2.688-11.28-5.12-17.216-7.184-10.688-3.712-18.624-12.816-20.848-23.936l-9.84-49.056h-43.52l-9.808 49.056c-2.224 11.12-10.16 20.224-20.864 23.936-5.904 2.064-11.648 4.464-17.2 7.152-4.416 2.16-9.184 3.216-13.952 3.216-6.224 0-12.4-1.808-17.744-5.376l-41.664-27.776-30.784 30.784 27.76 41.664c6.288 9.44 7.104 21.504 2.192 31.68-2.688 5.568-5.104 11.28-7.168 17.216-3.712 10.688-12.832 18.624-23.936 20.848l-49.040 9.84-0.032 43.536 49.056 9.808c11.104 2.224 20.224 10.16 23.936 20.864 2.064 5.904 4.448 11.648 7.152 17.2 4.96 10.208 4.128 22.272-2.176 31.696l-27.744 41.664 30.768 30.784 41.664-27.76c5.344-3.568 11.536-5.376 17.744-5.376 4.752 0 9.52 1.056 13.936 3.184 5.552 2.688 11.28 5.104 17.2 7.168 10.704 3.712 18.64 12.832 20.864 23.936l9.824 49.040 43.52 0.016 9.808-49.056c2.224-11.104 10.16-20.224 20.88-23.936 5.904-2.064 11.632-4.448 17.184-7.152 4.432-2.144 9.184-3.2 13.968-3.2 6.224 0 12.4 1.808 17.744 5.376l41.664 27.76 30.784-30.784-27.776-41.664c-6.288-9.44-7.088-21.488-2.192-31.68 2.688-5.552 5.12-11.28 7.184-17.2 3.712-10.704 12.816-18.64 23.936-20.864l49.024-9.824 0.048-43.52-49.056-9.824zM256 333.389c-61.84 0-112-50.16-112-112 0-61.856 50.16-112 112-112s112 50.16 112 112c0 61.84-50.16 112-112 112zM256 123.373c-54.112 0-98 43.904-98 98 0 54.112 43.888 98 98 98 54.096 0 98-43.888 98-98 0-54.096-43.904-98-98-98zM256 285.389c-35.36 0-64-28.64-64-64 0-35.344 28.64-64 64-64 35.344 0 64 28.656 64 64s-28.656 64-64 64zM256 173.373c-26.496 0-48 21.504-48 48s21.504 48 48 48 48-21.504 48-48c0-26.496-21.504-48-48-48z" />
<glyph unicode="&#xe048;" d="M502.4 298.205l-48 63.968c-1.872 2.512-4.096 4.688-6.4 6.768v76.464c0 17.664-14.336 32-32 32h-320c-17.68 0-32-14.336-32-32v-76.48c-2.304-2.064-4.528-4.224-6.4-6.72l-47.984-63.984c-6.208-8.256-9.616-18.48-9.616-28.816v-16c0-26.464 21.536-48 48-48v0-208c0-17.664 14.336-32 32-32h352c17.664 0 32 14.336 32 32v208c26.464 0 48 21.536 48 48v16c0 10.336-3.408 20.56-9.6 28.8zM416 445.405v-64h-320v64h320zM163.088 237.405h-67.024l64 112h35.024l-32-112zM211.744 349.405h36.256v-112h-68.256l32 112zM264 349.405h36.256l32-112h-68.256v112zM316.88 349.405h35.024l64-112h-67.024l-32 112zM32 253.405v16c0 3.472 1.12 6.832 3.2 9.6l48 64c3.024 4.032 7.76 6.4 12.8 6.4h45.632l-64-112h-29.632c-8.832 0-16 7.152-16 16zM320-2.595h-120v160h120v-160zM432-2.595h-96v160c0 8.848-7.184 16-16 16h-120c-8.832 0-16-7.152-16-16v-160h-104v208h352v-208zM480 253.405c0-8.848-7.152-16-16-16h-29.664l-64 112h45.664c5.024 0 9.776-2.368 12.784-6.4l48-64c2.096-2.768 3.216-6.128 3.216-9.6v-16z" />
<glyph unicode="&#xe049;" d="M240 317.405c0 8.837 7.163 16 16 16s16-7.163 16-16c0-8.837-7.163-16-16-16s-16 7.163-16 16zM240 125.405c0 8.837 7.163 16 16 16s16-7.163 16-16c0-8.837-7.163-16-16-16s-16 7.163-16 16zM144 221.405c0 8.837 7.163 16 16 16s16-7.163 16-16c0-8.837-7.163-16-16-16s-16 7.163-16 16zM336 221.405c0 8.837 7.163 16 16 16s16-7.163 16-16c0-8.837-7.163-16-16-16s-16 7.163-16 16zM160 153.533c0 12.709 7.163 19.872 28.112 19.872-3.275 0 3.888-7.163 3.888-19.872 0-4.964-7.163-12.128-3.888-12.128-20.948 0-28.112 7.163-28.112 12.128zM160 289.293c0 20.949 7.163 28.112 28.112 28.112-3.275 0 3.888-7.163 3.888-28.112 0 3.276-7.163-3.888-3.888-3.888-20.948 0-28.112 7.163-28.112 3.888zM304 153.533c0 12.709 7.163 19.872 19.872 19.872 4.964 0 12.128-7.163 12.128-19.872 0-4.964-7.163-12.128-12.128-12.128-12.709 0-19.872 7.163-19.872 12.128zM416 253.405c-1.12 0-2.064-0.528-3.152-0.64-5.568 27.92-18.72 52.896-36.752 73.504l-22.976 124.992c-2.8 15.152-16.032 26.144-31.456 26.144h-128c-15.424 0-28.64-11.008-31.472-26.16l-22.4-120.784c-26.88-28.592-43.792-66.688-43.792-109.056 0-41.328 16.224-78.48 41.936-106.848l22.592-123.008c2.816-15.136 16.048-26.144 31.472-26.144h128c15.408 0 28.624 11.008 31.472 26.16l22.784 122.912c19.024 20.976 32.848 46.72 38.592 75.6 1.088-0.144 2.032-0.672 3.152-0.672 17.664 0 32 14.336 32 32 0 17.68-14.336 32-32 32zM193.664 445.405h128l16-86.192c-23.632 13.744-50.688 22.192-80 22.192-29.296 0-56.368-8.448-80-22.192l16 86.192zM320-2.595h-128l-16 86.192c23.616-13.728 50.688-22.192 80-22.192 29.296 0 56.384 8.464 80 22.192l-16-86.192zM256 93.405c-70.576 0-128 57.44-128 128 0 70.576 57.424 128 128 128s128-57.424 128-128c0-70.56-57.44-128-128-128zM335.056 300.989c-1.936 1.936-5.056 2.096-7.248 0.336l-83.072-68.56c-3.056-3.072-4.736-7.136-4.736-11.488 0-4.208 1.632-8.192 4.624-11.168s7.008-4.64 11.312-4.672c4 0.032 8.16 1.52 11.184 4.432l29.568 35.6 38.816 48.336c1.68 2.128 1.488 5.248-0.448 7.184z" />
<glyph unicode="&#xe04a;" d="M352.032 477.405c-88.368 0-160-71.648-160-160 0-20.56 4.304-40.016 11.408-58.064l-194.384-194.368c-5.616-5.632-9.088-10.976-9.088-19.568v-48c0-17.12 14.864-32 32-32h48c8.576 0 14 3.44 19.616 9.024l22.96 22.976h37.488c17.664 0 32 14.336 32 32v32h32c17.664 0 32 14.336 32 32v37.504l37.904 37.936c18.064-7.12 37.504-11.44 58.096-11.44 88.336 0 160 71.648 160 160s-71.664 160-160 160zM352.032 189.405c-23.68 0-45.632 6.88-64.656 18.112l-5.504-5.488-48.48-48.496c-6-6-9.376-14.128-9.376-22.624v-37.504h-32c-17.664 0-32-14.32-32-32v-32h-37.472c-8.48 0-16.624-3.376-22.624-9.376l-22.688-22.688-45.216 0.064-0.048 45.6 186.64 186.32c0 0 0-0.016 0.016-0.032l23.504 23.504c-11.232 19.024-18.112 40.96-18.112 64.64 0 70.688 57.328 128 128 128s128-57.312 128-128-57.296-128.032-127.984-128.032zM445.088 345.581c-17.936 24.992-39.776 46.8-64.88 64.864-4.080 2.96-9.36 3.696-14.112 2.032-22.224-7.824-37.44-23.024-45.216-45.248-0.592-1.664-0.88-3.392-0.88-5.104 0-3.184 0.992-6.336 2.912-9.008 18-25.024 39.808-46.848 64.848-64.848 4.112-2.944 9.344-3.696 14.112-2.048 22.256 7.776 37.472 23.008 45.28 45.248 0.576 1.664 0.88 3.392 0.88 5.104-0.032 3.184-1.024 6.336-2.944 9.008zM397.088 301.245c-23.664 16.992-44.256 37.6-61.12 60.688 6.192 17.648 17.776 29.232 34.912 35.536 23.664-17.040 44.224-37.584 61.056-60.976-6.256-17.52-17.808-29.040-34.848-35.248z" />
<glyph unicode="&#xe04b;" d="M469.344 429.405h-69.344v32c0 8.848-7.152 16-16 16s-16-7.152-16-16v-32h-96v32c0 8.848-7.168 16-16 16s-16-7.152-16-16v-32h-96v32c0 8.848-7.168 16-16 16s-16-7.152-16-16v-32h-69.328c-23.568 0-42.672-19.088-42.672-42.656v-378.672c0-23.568 19.104-42.672 42.672-42.672h426.672c23.568 0 42.656 19.104 42.656 42.672v378.672c0 23.568-19.088 42.656-42.656 42.656zM480 8.077c0-5.888-4.784-10.672-10.656-10.672h-426.672c-5.888 0-10.672 4.784-10.672 10.672v378.672c0 5.872 4.784 10.656 10.672 10.656h69.328v-32c0-8.848 7.168-16 16-16s16 7.152 16 16v32h96v-32c0-8.848 7.168-16 16-16s16 7.152 16 16v32h96v-32c0-8.848 7.152-16 16-16s16 7.152 16 16v32h69.344c5.872 0 10.656-4.784 10.656-10.656v-378.672zM112 285.405h64v-48h-64zM112 205.405h64v-48h-64zM112 125.405h64v-48h-64zM224 125.405h64v-48h-64zM224 205.405h64v-48h-64zM224 285.405h64v-48h-64zM336 125.405h64v-48h-64zM336 205.405h64v-48h-64zM336 285.405h64v-48h-64z" />
<glyph unicode="&#xe04c;" d="M397.312 294.285c-2.976 4.448-7.968 7.12-13.312 7.12h-16c-8.848 0-16-7.152-16-16v-96c0-8.848 7.152-16 16-16h64c8.848 0 16 7.152 16 16v24c0 3.152-0.944 6.256-2.688 8.88l-48 72zM432 189.405h-64v96h16l48-72v-24zM503.936 232.029l-64 96c-8.928 13.392-23.872 21.376-39.936 21.376h-64v32c0 26.464-21.536 48-48 48h-240c-26.464 0-48-21.536-48-48v-176c0-26.464 21.536-48 48-48v0-48c0-26.464 21.536-48 48-48h18.272c7.152-27.536 32-48 61.744-48 29.712 0 54.56 20.464 61.712 48h84.512c7.152-27.536 32-48 61.744-48 29.712 0 54.56 20.464 61.712 48h18.304c26.464 0 48 21.536 48 48v96c0 9.504-2.784 18.72-8.064 26.624zM48 189.405c-8.832 0-16 7.152-16 16v176c0 8.848 7.168 16 16 16h240c8.848 0 16-7.152 16-16v-176c0-8.848-7.152-16-16-16h-240zM176.016 45.405c-17.68 0-32 14.336-32 32s14.32 32 32 32c17.664 0 32-14.336 32-32s-14.352-32-32-32zM384 45.405c-17.68 0-32 14.336-32 32s14.32 32 32 32c17.664 0 32-14.336 32-32s-14.336-32-32-32zM480 109.405c0-8.848-7.152-16-16-16h-18.288c-7.152 27.536-32 48-61.712 48-29.744 0-54.592-20.464-61.744-48h-84.512c-7.152 27.536-32 48-61.712 48-29.744 0-54.592-20.464-61.744-48h-18.288c-8.832 0-16 7.152-16 16v48h208c26.464 0 48 21.536 48 48v112h64c5.344 0 10.336-2.672 13.312-7.12l64-96c1.744-2.624 2.688-5.728 2.688-8.88v-96z" />
<glyph unicode="&#xe04d;" d="M414.624 267.117c-6.992 73.008-67.776 130.288-142.624 130.288-57.904 0-107.472-34.368-130.336-83.68-6.88 2.176-14.048 3.68-21.648 3.68-39.76 0-72-32.256-72-72 0-7.904 1.584-15.376 3.936-22.464-30.928-18.032-51.936-51.12-51.936-89.504 0-57.44 46.56-104 104-104v-0.032l287.984 0.032c66.288 0 120 53.712 120 120 0 58.496-41.936 107.088-97.376 117.68zM392 61.437v-0.032h-287.984c-39.696 0.032-72 32.32-72 72.032 0 25.6 13.488 48.72 36.064 61.872 21.936 12.592 23.44 15.088 14.24 37.712-1.552 4.656-2.304 8.704-2.304 12.368 0 22.064 17.936 40 40 40 0 0 10.496 0.752 21.648-3.68 18.352-7.312 20.352-0.32 29.024 18.544 18.352 39.568 58.112 65.152 101.312 65.152 57.6 0 105.216-43.568 110.784-101.344 1.968-22.912 1.968-22.912 25.84-28.368 41.376-7.904 71.376-44.192 71.376-86.256 0-48.528-39.472-88-88-88z" />
<glyph unicode="&#xe04e;" d="M256 477.405c-97.216 0-176-78.784-176-176 0-64.496 59.008-132.848 80.496-192.88 32.048-89.52 28.496-143.12 95.504-143.12 68 0 63.44 53.344 95.504 142.752 21.552 60.16 80.496 129.248 80.496 193.248 0 97.216-78.816 176-176 176zM297.472 42.589l-79.328-9.904c-2.832 8.192-5.872 17.776-9.568 30.288-0.048 0.16-0.112 0.336-0.144 0.496l99.008 12.368c-1.408-4.72-2.912-9.68-4.224-14.128-2.096-7.184-3.968-13.424-5.744-19.12zM203.776 78.877c-2.912 9.632-6.192 19.776-9.84 30.528h124.256c-1.968-5.744-3.936-11.504-5.632-16.944l-108.784-13.584zM256-2.595c-16.208 0-23.664 1.872-31.952 20l67.808 8.496c-9.824-26.464-16.976-28.496-35.856-28.496zM330.752 141.405h-149.328c-7.968 17.28-17.536 34.56-26.976 51.472-20.88 37.36-42.448 76-42.448 108.528 0 79.408 64.592 144 144 144s144-64.592 144-144c0-32.288-21.6-71.136-42.496-108.72-9.344-16.848-18.848-34.096-26.752-51.28zM256 397.405c-52.944 0-96-43.056-96-96 0-4.416 3.584-8 8-8s8 3.584 8 8c0 44.112 35.888 80 80 80 4.416 0 8 3.584 8 8s-3.6 8-8 8z" />
<glyph unicode="&#xe04f;" d="M512.032 380.189c-18.848-8.352-39.072-14.016-60.32-16.544 21.696 12.992 38.304 33.6 46.176 58.080-20.32-12.032-42.816-20.768-66.752-25.504-19.136 20.448-46.432 33.184-76.64 33.184-58.016 0-105.056-47.040-105.056-105.024 0-8.224 0.928-16.256 2.72-23.936-87.296 4.384-164.704 46.208-216.512 109.76-9.056-15.488-14.208-33.536-14.208-52.8 0-36.448 18.56-68.608 46.72-87.424-17.216 0.576-33.408 5.312-47.584 13.184v-1.312c0-50.88 36.224-93.344 84.256-103.008-8.8-2.368-18.080-3.68-27.68-3.68-6.784 0-13.344 0.672-19.776 1.92 13.376-41.728 52.16-72.096 98.112-72.96-35.936-28.16-81.248-44.928-130.464-44.928-8.48 0-16.832 0.512-25.056 1.44 46.496-29.824 101.696-47.232 161.024-47.232 193.216 0 298.88 160.064 298.88 298.88l-0.352 13.6c20.608 14.752 38.464 33.248 52.512 54.304z" />
<glyph unicode="&#xe050;" d="M431.968 253.357h0.032c0.032-4.384 3.6-7.936 8-7.936s8 3.568 8 7.984c0 0.048-0.032 0.080-0.032 0.128-0.096 88.144-71.44 159.568-159.568 159.776-0.112 0.032-0.24 0.096-0.4 0.096-4.432 0-8-3.584-8-8 0-4.4 3.568-7.984 7.968-8v-0.064c79.408 0.016 144-64.592 144-143.984zM145.936 463.357c-9.168 9.184-21.456 14.048-33.952 14.048-6.176 0-12.4-1.184-18.336-3.648-17.952-7.424-29.648-24.928-29.648-44.352l-0.016-220.112-49.92-49.952c-18.752-18.72-18.752-49.12 0-67.872l112-112c9.376-9.376 21.648-14.064 33.936-14.064s24.56 4.688 33.936 14.064l49.936 49.936h220.096c19.44 0 36.944 11.68 44.336 29.632 7.44 17.936 3.344 38.592-10.4 52.32l-351.968 352zM221.248 52.029l-49.936-49.936c-4.080-4.064-8.848-4.688-11.312-4.688s-7.232 0.624-11.312 4.688l-112 112c-4.080 4.096-4.688 8.848-4.688 11.312s0.608 7.248 4.688 11.312l49.92 49.936c0.144 0.16 0.192 0.336 0.336 0.496l134.8-134.816c-0.144-0.112-0.352-0.144-0.496-0.304zM243.872 61.405c-2.48 0-4.784-0.88-7.152-1.408l-142.16 142.16c0.544 2.368 1.424 4.672 1.424 7.136l0.016 192.736 340.592-340.624h-192.72zM478.752 71.277c-2.464-6-8.288-9.872-14.784-9.872h-4.752l-363.216 363.248v4.752c0 6.496 3.872 12.304 9.872 14.784 1.968 0.816 4.016 1.216 6.112 1.216 4.288 0 8.304-1.664 11.312-4.672l351.984-352.016c4.592-4.592 5.968-11.44 3.472-17.44zM287.968 445.405v-0.064c105.872 0 192-86.128 192-192h0.032c0.032-8.8 7.184-15.936 16-15.936 8.848 0 16 7.152 16 16 0 0.048-0.032 0.080-0.032 0.128-0.096 123.488-100.096 223.568-223.568 223.792-0.112 0.016-0.24 0.080-0.4 0.080-8.848 0-16-7.152-16-16 0-8.816 7.152-15.984 15.968-16z" />
<glyph unicode="&#xe051;" d="M510.784 182.125l-64.032 240.096c-3.872 13.648-16.528 23.184-30.752 23.184h-320c-14.24 0-26.88-9.536-30.752-23.184l-64.032-240.096c-0.816-2.912-1.216-5.84-1.216-8.72v-112c0-35.344 28.656-64 64-64h384c35.344 0 64 28.656 64 64v112c0 2.88-0.4 5.808-1.216 8.72zM480 61.405c0-17.632-14.368-32-32-32h-384c-17.648 0-32 14.368-32 32v112l64.016 240.016h319.952l64.032-240.016v-112zM379.872 381.405h-247.744c-7.248 0-13.6-4.88-15.472-11.888l-55.12-192c-1.264-4.816-0.256-9.936 2.784-13.872s7.712-6.24 12.672-6.24h73.088l23.152-46.32c5.44-10.832 16.512-17.68 28.64-17.68h108.256c12.128 0 23.184 6.848 28.624 17.68l23.152 46.32h73.088c4.976 0 9.664 2.32 12.688 6.256s4.032 9.056 2.784 13.872l-55.12 192c-1.872 7.008-8.224 11.872-15.472 11.872zM388.496 189.405h-26.592c-12.192 0-23.152-6.752-28.624-17.68l-23.152-46.32h-108.256l-23.152 46.32c-5.472 10.928-16.432 17.68-28.624 17.68h-64.752l46.784 176h247.744l46.784-176h-38.16z" />
<glyph unicode="&#xe052;" d="M512 29.405c0-17.664-14.336-32-32-32-17.68 0-32 14.336-32 32s14.32 64 32 64c17.664 0 32-46.336 32-64zM464 269.405v-144c0-8.848 7.152-16 16-16 8.832 0 16 7.152 16 16v144c0 8.848-7.168 16-16 16-8.848 0-16-7.152-16-16zM474.784 302.621l-42.784-9.872v-135.344c0-42.464-48.608-80-176-80s-176 37.536-176 80v135.344l-42.8 9.872c-21.888 5.056-37.2 24.288-37.2 46.784s15.296 41.728 37.216 46.784l207.984 48c3.712 0.832 7.264 1.216 10.8 1.216s7.088-0.384 10.576-1.168l208.208-48.048c21.904-5.056 37.216-24.288 37.216-46.784s-15.312-41.728-37.216-46.784zM400 285.357l-133.216-30.736c-3.68-0.832-7.248-1.216-10.784-1.216s-7.104 0.384-10.592 1.168l-133.408 30.784v-127.952c0-17.68 48-48 144-48s144 30.32 144 48v127.952zM467.6 333.805c7.248 1.68 12.4 8.144 12.4 15.6s-5.152 13.92-12.4 15.6l-208 48-3.6 0.4-3.6-0.4-208-48c-7.264-1.68-12.4-8.144-12.4-15.6s5.136-13.92 12.4-15.6l208-48 3.6-0.4 3.6 0.4 208 48z" />
<glyph unicode="&#xe053;" d="M372.251 286.78l45.959-22.212 69.349 22.212v40.212c0 82.938-67.611 150.413-150.716 150.413s-150.716-67.476-150.716-150.413v-211.173c0-19.483-15.886-35.328-35.409-35.328s-35.402 15.852-35.402 35.328v88.421h-115.314v-88.421c0-82.938 67.611-150.413 150.716-150.413 83.113 0 150.716 67.476 150.716 150.413v211.173c0 19.483 15.885 35.328 35.409 35.328s35.409-15.852 35.409-35.328v-40.212zM558.37 204.24v-88.421c0-19.483-15.879-35.328-35.402-35.328s-35.409 15.852-35.409 35.328v90.2l-69.349-22.212-45.959 22.212v-90.2c0-82.938 67.604-150.413 150.716-150.413 83.099 0 150.716 67.476 150.716 150.413v88.421h-115.314z" horiz-adv-x="674" />
<glyph unicode="&#xe054;" d="M500 374.397l-80 64c-5.68 4.544-12.752 7.008-20 7.008h-288c-7.264 0-14.32-2.464-20-7.008l-80-64c-10.464-8.384-14.592-22.4-10.352-35.12l32-96c3.152-9.456 10.544-16.912 19.984-20.144 3.36-1.152 6.88-1.728 10.368-1.728 5.568 0 11.088 1.456 16 4.288v-196.288c0-17.664 14.336-32 32-32h288c17.664 0 32 14.336 32 32v196.288c4.912-2.832 10.432-4.288 16-4.288 3.504 0 7.008 0.576 10.368 1.728 9.44 3.232 16.816 10.688 19.968 20.144l32 96c4.256 12.72 0.128 26.736-10.336 35.12zM316.064 413.405c-8.848-18.576-32.288-32-60.064-32s-51.232 13.424-60.064 32h120.128zM448 253.405l-48 32v-256h-288v256l-48-32-32 96 80 64h66.832c8.912-27.552 39.936-48 77.168-48 37.216 0 68.256 20.448 77.152 48h66.848l80-64-32-96z" />
<glyph unicode="&#xe055;" d="M502.256 255.277l-80 128c-11.68 18.704-32.192 30.080-54.256 30.080h-304c-35.344 0-64-28.656-64-64v-256c0-35.344 28.656-64 64-64h304c22.064 0 42.56 11.376 54.256 30.096l80 128c12.992 20.72 12.992 47.072 0 67.824zM475.12 204.413l-80-128.032c-5.872-9.408-16.032-15.024-27.12-15.024h-304c-17.648 0-32 14.368-32 32v256c0 17.648 14.352 32 32 32h304c11.088 0 21.248-5.632 27.12-15.024l80-128c6.448-10.32 6.448-23.632 0-33.92zM368 269.357c-26.528 0-48-21.488-48-48s21.472-48 48-48c26.496 0 48 21.504 48 48 0 26.512-21.504 48-48 48zM368 189.341c-17.68 0-32 14.336-32 32s14.32 32 32 32c17.664 0 32-14.336 32-32 0-17.648-14.336-32-32-32z" />
<glyph unicode="&#xe056;" d="M15.287 221.403l248.356-248.351-7.641-7.641-256.002 255.992 256.002 256.002 7.641-7.641-248.356-248.361zM21.437 226.806v-10.808h540.997v10.808h-540.997z" horiz-adv-x="562" />
<glyph unicode="&#xe057;" d="M312.683 27.91c-22.258-8.988-46.542-13.986-72.027-13.986-51.831 0-98.713 20.512-133.513 53.626l15.939 9.449c11.196 6.623 11.087 17.176-0.231 23.569l-77.74 43.91c-11.317 6.392-20.706 0.922-20.973-12.227l-1.843-91.423c-0.255-13.161 8.588-18.45 19.771-11.827l22.040 13.051c44.225-47.063 106.84-76.661 176.537-76.661 25.315 0 49.671 3.99 72.56 11.269 48.75 12.991 24.49 61.51-0.522 51.248zM48.325 234.166c10.614 78.589 68.352 142.089 143.811 161.557v49.999c-95.001-19.286-169.757-94.091-189.092-189.067-17.115-60.794 43.534-48.665 45.281-22.488zM213.558 353.814l78.978 47.282c11.487 6.889 11.511 18.086 0.048 25.024l-79.693 48.228c-11.463 6.926-20.718 1.698-20.657-11.705l0.424-97.038c0.048-13.392 9.412-18.68 20.899-11.79zM486.782 121.043l-41.363 24.49 25.145-14.519c8.115 24.211 12.688 50.048 12.688 77 0 73.543-32.762 139.42-84.472 183.9-24.697 22.283-61.086-1.977-37.784-31.683 44.904-35.553 73.737-90.513 73.737-152.229 0-17.988-2.656-35.346-7.229-51.867l-21.337 12.627c-11.123 6.587-19.978 1.164-19.784-12.106l1.407-91.18c0.206-13.282 9.474-18.85 20.706-12.445l78.092 44.505c11.232 6.392 11.317 16.921 0.194 23.507z" horiz-adv-x="495" />
<glyph unicode="&#xe058;" d="M172.393 366.125v111.28h-71.837c-1.622-4.123-2.478-9.011-2.478-14.012-0.766-2.411-1.622-4.145-1.622-6.6-7.388-41.2-28.834-70.057-65.146-85.757-10.723-4.91-20.589-5.699-31.311-4.91v-89.813h52.757c0.879-126.215 0.879-191.316 0.879-194.627 0-2.478 0-4.956 0-7.478 6.623-55.167 35.434-88.168 86.569-100.535 20.589-5.789 42.822-8.245 65.146-8.245 28.811 0.811 56.879 5.767 84.947 14.845v105.536c-16.466-4.956-31.424-9.055-44.535-13.133-25.567-7.502-47.013-2.546-64.357 13.944-1.644 2.478-4.123 5.789-4.978 9.078-2.388 13.2-4.010 27.166-4.010 40.435v140.159h114.501v89.835h-114.524z" horiz-adv-x="290" />
<glyph unicode="&#xe059;" d="M493.664 376.285c-3.072 13.024-14 22.752-27.28 24.352-69.76 8.48-140.512 12.768-210.304 12.768-69.776 0-140.528-4.288-210.288-12.752-13.28-1.616-24.176-11.328-27.264-24.368-24.464-102.768-24.464-206.976 0-309.76 3.088-13.024 13.984-22.752 27.264-24.336 33.616-4.096 67.456-7.088 101.296-9.216-1.824-1.168-3.008-2.352-3.008-3.568 0-8.848 50.144-16 112-16s112 7.152 112 16c0 1.216-1.168 2.4-3.008 3.568 33.84 2.128 67.68 5.12 101.28 9.216 13.28 1.6 24.208 11.312 27.28 24.336 24.496 102.784 24.496 206.992 0.032 309.76zM462.528 73.933c-137.632-16.688-275.264-16.688-412.88 0-23.408 98.32-23.408 196.64 0 294.944 137.632 16.704 275.264 16.704 412.88 0 23.408-98.304 23.408-196.624 0-294.944zM224.080 280.861c0-4.416-3.6-8.128-8-8.288l-59.984-4.112c-4.368-0.448-8.432-4.384-9.024-8.736l-2.672-30.32c-0.176-4.4-3.92-8-8.288-8-4.384 0-7.792 3.6-7.568 8l4.88 44.576c0.736 4.352 4.912 8.32 9.28 8.816l73.376 5.744c4.416 0.176 8-3.264 8-7.68zM424.096 285.405c13.248 0 24 10.752 24 24s-10.752 24-24 24-24-10.752-24-24 10.752-24 24-24zM424.096 317.405c4.4 0 8-3.6 8-8s-3.6-8-8-8-8 3.6-8 8 3.584 8 8 8zM464.096 165.405c0-4.4-3.6-8-8-8h-48c-4.432 0-8 3.6-8 8 0 4.432 3.568 8 8 8h48c4.4 0 8-3.568 8-8zM464.096 213.405c0-4.4-3.6-8-8-8h-48c-4.432 0-8 3.6-8 8 0 4.416 3.568 8 8 8h48c4.4 0 8-3.584 8-8zM448.096 117.405c0-4.4-3.6-8-8-8h-48c-4.432 0-8 3.6-8 8 0 4.432 3.568 8 8 8h48c4.4 0 8-3.568 8-8zM354.72 339.421c-43.312 8.912-87.28 13.424-130.64 13.424s-87.312-4.512-130.64-13.424c-5.6-1.152-10.176-5.216-11.984-10.672-23.072-70.096-23.072-141.168 0-211.264 1.792-5.44 6.368-9.504 11.984-10.656 43.328-8.896 87.28-13.424 130.64-13.424 43.344 0 87.328 4.528 130.64 13.44 5.632 1.152 10.192 5.216 12 10.656 23.056 70.096 23.056 141.168 0 211.264-1.808 5.44-6.384 9.504-12 10.656zM351.504 122.493c-84.944-17.44-169.904-17.44-254.832 0-22.096 67.072-22.096 134.16 0 201.264 84.944 17.456 169.904 17.456 254.832 0 22.096-67.088 22.096-134.16 0-201.264z" />
<glyph unicode="&#xe05a;" d="M369.981 106.226h-113.705c-15.805 0-29.245 5.529-40.29 16.64-11.095 11.12-16.578 24.56-16.578 40.443v40.464h162.018c14.613 0 27.197 5.253 37.653 15.683 10.455 10.517 15.698 23.086 15.698 37.714 0 14.679-5.248 27.233-15.728 37.714-10.491 10.455-23.111 15.698-37.786 15.698h-161.853v83.605c0 15.821-5.642 29.363-16.845 40.647-11.156 11.305-24.648 16.973-40.32 16.973-16.108 0-29.824-5.586-40.981-16.64-11.192-11.090-16.784-24.75-16.784-41.032v-230.861c0-47.483 16.784-88.048 50.365-121.718 33.613-33.731 74.127-50.55 121.498-50.55h113.674c15.785 0 29.332 5.668 40.601 16.973 11.279 11.248 16.906 24.822 16.906 40.627 0 15.81-5.627 29.358-16.906 40.658-11.274 11.274-24.842 16.962-40.637 16.962z" />
<glyph unicode="&#xe05b;" d="M224 189.405h64v128h96l-128 128-128-128h96v-128zM320 261.405v-49.355l146.533-54.645-210.533-78.509-210.533 78.509 146.533 54.645v49.355l-192-72v-128l256-96 256 96v128l-192 72z" />
<glyph unicode="&#xe05c;" d="M480.768 37.901c-2.992 1.984-57.232 37.552-137.936 55.024 29.6 37.504 48.608 87.936 56.688 121.52 11.216 46.528 6.864 137.568-37.824 194.304-26.128 33.152-62.672 50.656-105.696 50.656s-79.568-17.52-105.664-50.672c-44.688-56.72-49.024-147.76-37.824-194.288 8.080-33.568 27.072-84.016 56.688-121.52-80.704-17.456-134.944-53.040-137.92-55.024-10.896-7.264-15.776-20.832-11.968-33.344 3.776-12.576 15.36-21.168 28.464-21.168h416.496c13.104 0 24.656 8.592 28.464 21.152 3.808 12.544-1.072 26.112-11.968 33.36zM139.424 299.533c8.112 63.648 44.576 130.128 116.576 130.128s108.48-66.496 116.592-130.144c8.816-66.272-11.664-135.632-53.12-188.16l-4.848-6.16c-35.472-40.752-81.744-40.752-117.2 0l-4.864 6.16c-41.424 52.496-61.984 121.936-53.136 188.176zM47.744 13.149c2.048 1.376 52.448 34.416 127.712 50.688l36.944 7.984c13.2-8.656 27.664-14.064 43.584-14.064 15.936 0 30.384 5.392 43.584 14.064l36.944-7.984c74.672-16.16 124.896-48.832 127.712-50.688h-416.48z" />
<glyph unicode="&#xe05d;" d="M503.438 435.597c50.775-1.333 76.175-30.159 76.427-86.546 0-3.7-0.126-7.553-0.327-11.505-2.24-47.805-37.812-112.929-106.863-195.348-71.216-86.346-131.634-129.57-181.25-129.795-30.863 0-56.49 26.433-77.056 79.322l-21.599 72.5-21.347 72.399c-15.733 52.462-32.549 78.642-50.498 78.642-3.927 0-17.546-7.652-40.933-22.907l-24.922 29.478 38.667 32.122 38.038 31.795c34.061 27.288 59.964 42.040 77.737 44.229 2.366 0.252 4.733 0.327 7.149 0.327 36.477 0 59.259-26.205 68.196-78.642 4.984-29.906 9.113-54.225 12.461-72.904 3.248-18.73 5.966-31.769 8.131-39.196 12.058-49.593 25.048-74.515 39.019-74.715 10.724 0 27.238 16.161 49.542 48.484 21.8 33.204 33.531 57.799 35.041 73.809 0.478 3.248 0.654 6.293 0.654 9.113 0 21.675-11.933 32.474-35.697 32.474-12.058 0-24.921-2.567-38.692-7.527 24.67 76.050 72.098 114.137 142.232 114.389 1.964 0 3.901 0 5.891 0z" horiz-adv-x="571" />
<glyph unicode="&#xe05e;" d="M351.216 459.005c-131.232 52.544-280.24-11.232-332.8-142.48-52.576-131.264 11.232-280.288 142.48-332.832 131.248-52.56 280.256 11.232 332.816 142.48 52.576 131.264-11.248 280.256-142.496 332.832zM172.8 13.389c-114.656 45.92-170.592 176.544-124.688 291.216 45.92 114.656 176.56 170.608 291.232 124.672 114.656-45.904 170.592-176.544 124.688-291.2-45.936-114.672-176.56-170.592-291.232-124.688zM267.984 251.053c-16.4 6.576-35.040-1.408-41.616-17.808s1.408-35.024 17.792-41.6c16.4-6.576 35.056 1.408 41.616 17.792 6.56 16.4-1.408 35.024-17.792 41.616zM250.112 206.477c-8.192 3.296-12.176 12.608-8.912 20.816 3.296 8.192 12.624 12.176 20.816 8.912 8.176-3.28 12.16-12.608 8.896-20.816-3.28-8.192-12.608-12.176-20.8-8.912zM291.744 310.445c-49.216 19.712-105.088-4.224-124.8-53.424-19.712-49.216 4.224-105.088 53.424-124.8 49.216-19.712 105.088 4.208 124.8 53.424s-4.192 105.104-53.424 124.8zM232.288 161.933c-32.768 13.104-48.736 50.448-35.632 83.2 13.12 32.752 50.432 48.736 83.184 35.632 32.784-13.12 48.752-50.464 35.664-83.216-13.136-32.752-50.464-48.752-83.216-35.616zM374.912 173.757c1.632 4.096-0.368 8.752-4.464 10.384-4.096 1.664-8.752-0.336-10.4-4.448v0.016c-11.504-28.736-33.568-50.064-59.904-61.344-4.032-1.728-5.936-6.432-4.192-10.48 1.744-4.080 6.432-5.952 10.496-4.224 0.16 0.064 0.224 0.192 0.336 0.24 29.968 12.96 55.024 37.232 68.096 69.856h0.032zM429.84 160.381c-4.096 1.648-8.752-0.352-10.4-4.448-18.064-45.12-52.72-78.64-94.128-96.368-4.032-1.728-5.936-6.432-4.192-10.496 1.744-4.080 6.432-5.936 10.496-4.208 0.192 0.096 0.336 0.272 0.528 0.352 44.944 19.408 82.56 55.84 102.16 104.768 1.632 4.096-0.368 8.752-4.464 10.4zM400.128 172.269c-4.096 1.648-8.752-0.336-10.4-4.448-14.752-36.928-43.088-64.336-76.992-78.848h0.032c-4.064-1.744-5.968-6.448-4.224-10.512s6.432-5.936 10.496-4.208c0.16 0.080 0.256 0.224 0.432 0.32 37.44 16.176 68.784 46.512 85.12 87.296 1.632 4.096-0.368 8.752-4.464 10.4zM216.208 334.813c-1.744 4.080-6.448 5.936-10.512 4.192-0.144-0.048-0.224-0.176-0.336-0.224-29.968-12.96-55.040-37.248-68.096-69.856h-0.016c-1.648-4.112 0.352-8.752 4.448-10.4 4.112-1.648 8.768 0.352 10.4 4.448h0.016c11.488 28.704 33.552 50.048 59.888 61.312 4.064 1.76 5.952 6.448 4.208 10.528zM191.008 393.645c-1.744 4.064-6.448 5.936-10.512 4.208-0.192-0.080-0.336-0.256-0.496-0.336-44.96-19.424-82.56-55.84-102.16-104.768-1.664-4.128 0.336-8.784 4.448-10.416 4.096-1.648 8.752 0.336 10.4 4.448 18.080 45.104 52.72 78.624 94.128 96.352 4.048 1.76 5.936 6.448 4.192 10.512zM199.408 353.741c4.048 1.728 5.952 6.416 4.208 10.496-1.744 4.048-6.448 5.936-10.512 4.192-0.16-0.064-0.256-0.224-0.416-0.288-37.456-16.192-68.8-46.56-85.12-87.328-1.664-4.112 0.352-8.752 4.432-10.416 4.096-1.632 8.752 0.336 10.4 4.448 14.768 36.928 43.12 64.352 76.992 78.848v0.048z" />
<glyph unicode="&#xe05f;" d="M256 157.405c0 17.673 14.327 32 32 32s32-14.327 32-32c0-17.673-14.327-32-32-32s-32 14.327-32 32zM464.016 269.405c-0.016 0-0.016 0 0 0l-0.016 96v48c0 26.512-21.504 48-48 48h-328c-48.528 0-88-39.488-88-88v-320c0-48.512 39.472-88 88-88h288c48.512 0 88 39.488 88 88v24c0 0 0 0 0.016 0 63.968 48.016 63.968 143.984 0 192zM88 429.405h328c8.816 0 16-7.168 16-16v-98.944c-5.024 1.792-10.368 2.944-16 2.944h-0.016v80c0 8.848-7.168 16-16 16h-336c-8.832 0-16-7.152-16-16v-63.088c-9.872 10.096-15.984 23.856-15.984 39.088 0 30.928 25.056 56 56 56zM399.984 381.405h-336v16h336v-16zM399.984 365.405v-16h-336v16h336zM399.984 333.405v-16h-311.984c-8.64 0-16.704 2.112-24 5.6v10.4h335.984zM432 53.405c0-30.928-25.072-56-56-56h-288c-30.944 0-56 25.072-56 56v252.176c15.216-12.592 34.736-20.176 56-20.176h328c8.816 0 16-7.168 16-16v-32h-144c-44.192 0-80-35.808-80-80s35.824-80 80-80h144v-24zM452.432 109.405h-164.432c-26.464 0-48 21.536-48 48s21.536 48 48 48h144c9.872 0.128 19.664 4.912 25.632 12.864 1.664 2.24 2.96 4.752 4 7.376 0.144 0.352 0.4 0.624 0.528 0.992 11.504-15.088 17.84-33.584 17.84-53.232 0-24.608-9.936-47.44-27.568-64z" />
<glyph unicode="&#xe060;" d="M51.63 334.045c38.431 71.68 115.497 118.548 204.37 118.548 57.529 0 110.090-24.514 150.462-59.115-11.536 2.233-24.13-0.276-36.813-7.531-29.696-17.029-39.404-65.229-0.901-89.436 24.048-15.027 32.604-52.649 31.795-75.627-0.793-23.014-55.895-128.707-55.895-128.707l-53.647 184.217c0 0-1.849 12.923-1.849 16.65 0 4.7 1.551 10.455 4.45 13.742 1.997 2.186 5.048 6.779 8.653 6.779h25.426v20.48h-138.24v-20.48h4.286c4.526 0 8.955-6.087 13.225-10.46 5.048-5.212 11.402-24.822 19.097-45.163l20.101-66.217-43.321-100.106-47.529 200.074c0 0 1.403 13.712 4.275 16.041 1.874 1.602 4.751 5.832 8.079 5.832h1.305v20.48h-117.33zM78.73 299.275c0 0-11.182 14.29-23.050 14.29h-12.042c-11.617-25.6-18.038-59.981-18.038-91.489 0-94.791 58.132-176.092 140.948-210.739l-87.818 287.938zM454.267 335.868c4.382-20.772 3.476-45.972-5.063-73.692-22.277-72.125-77.425-201.872-98.775-251.295 80.144 35.784 135.972 115.666 135.972 208.533 0 42.537-11.745 82.345-32.133 116.454zM260.654 141.119l-58.906-143.887c17.398-4.168 35.553-6.441 54.251-6.441 19.359 0 38.139 2.401 56.1 6.861l-51.446 143.468z" />
<glyph unicode="&#xe061;" d="M248 477.405c-136.976 0-248-111.024-248-248s111.024-248 248-248 248 111.024 248 248-111.024 248-248 248zM463.6 237.405h-95.936c-0.88 35.44-7.184 69.296-18.368 100.288 21.6 9.008 41.568 20.992 59.776 35.152 32.368-36.336 52.608-83.52 54.528-135.44zM239.152 13.853c-26.592 22.144-48.896 50.896-65.216 84.288 20.944 6.544 43.136 10.128 66.064 10.864v-95.184c-0.288 0-0.56 0.016-0.848 0.032zM256.816 444.957c30.176-25.12 54.8-58.768 71.456-98.016-22.816-7.792-47.056-12.32-72.288-13.12v111.184c0.304-0.016 0.56-0.032 0.832-0.048zM283.472 442.237c44.16-7.344 83.776-27.968 114.624-57.824-16.752-12.848-35.056-23.728-54.848-31.968-14.56 34.512-34.992 65.024-59.776 89.792zM240 445.005v-111.184c-25.232 0.816-49.488 5.328-72.288 13.12 16.656 39.248 41.28 72.896 71.456 98.016 0.288 0.016 0.544 0.032 0.832 0.048zM152.736 352.429c-19.76 8.24-38.080 19.12-54.832 31.968 30.832 29.856 70.464 50.48 114.624 57.824-24.8-24.752-45.216-55.264-59.792-89.792zM161.68 332.189c24.672-8.56 50.96-13.552 78.32-14.384v-80.4h-95.664c0.864 33.504 6.8 65.52 17.344 94.784zM240 221.405v-96.4c-25.232-0.768-49.632-4.896-72.624-12.304-13.856 32.992-22.032 69.744-23.040 108.704h95.664zM212.528 16.573c-39.568 6.576-75.504 23.808-104.72 48.832 15.76 10.928 32.8 20.176 51.008 27.2 13.952-28.928 32.208-54.608 53.712-76.032zM256 13.805v95.184c22.912-0.736 45.12-4.32 66.064-10.864-16.336-33.392-38.624-62.144-65.216-84.288-0.272 0-0.56-0.016-0.848-0.032zM337.184 92.605c18.192-7.024 35.216-16.288 51.008-27.2-29.216-25.008-65.152-42.256-104.72-48.832 21.504 21.424 39.744 47.104 53.712 76.032zM328.624 112.701c-23.008 7.408-47.408 11.536-72.624 12.304v96.4h95.664c-1.008-38.96-9.2-75.712-23.040-108.704zM256 237.405v80.4c27.344 0.832 53.632 5.808 78.32 14.368 10.528-29.264 16.464-61.28 17.344-94.784h-95.664zM86.944 372.845c18.208-14.16 38.176-26.144 59.76-35.152-11.184-30.992-17.488-64.848-18.368-100.288h-95.936c1.92 51.92 22.16 99.104 54.544 135.44zM32.4 221.405h95.936c0.992-40.88 9.536-79.488 24.048-114.192-20.272-7.904-39.168-18.432-56.608-30.896-37.568 37.392-61.28 88.512-63.376 145.088zM400.224 76.333c-17.44 12.448-36.336 22.992-56.624 30.896 14.528 34.704 23.056 73.312 24.064 114.192h95.936c-2.096-56.592-25.824-107.712-63.376-145.088z" />
<glyph unicode="&#xe062;" d="M124.317 476.933h29.578l19.062-76.13h1.851l18.196 76.111h29.893l-34.206-111.34v-79.025h-29.4v75.421l-34.974 114.964zM221.558 394.875c0 10.87 3.525 19.555 10.555 25.974 7.030 6.44 16.463 9.689 28.317 9.689 10.831 0 19.692-3.387 26.565-10.221 6.892-6.755 10.358-15.537 10.358-26.211v-72.546c0-12.012-3.387-21.445-10.142-28.317-6.794-6.833-16.049-10.26-27.943-10.26-11.461 0-20.559 3.565-27.471 10.614-6.853 7.030-10.26 16.542-10.26 28.475l0.019 72.802zM248.399 319.453c0-3.84 0.925-6.853 2.856-8.96 1.832-2.087 4.49-3.151 7.936-3.151 3.565 0 6.321 1.083 8.428 3.249 2.067 2.107 3.131 5.080 3.131 8.861v76.485c0 3.032-1.103 5.534-3.21 7.424-2.107 1.871-4.904 2.856-8.349 2.856-3.19 0-5.809-0.985-7.798-2.856-1.989-1.891-2.993-4.392-2.993-7.424v-76.485zM394.043 426.973v-140.426h-26.112v15.517c-4.805-5.731-9.807-10.082-15.045-13.056-5.179-2.954-10.24-4.49-15.123-4.49-6.046 0-10.575 2.087-13.647 6.262s-4.568 10.417-4.568 18.826v117.366h26.072v-107.697c0-3.269 0.551-5.691 1.693-7.168 1.043-1.457 2.875-2.245 5.277-2.245 1.95 0 4.392 0.984 7.267 2.954 2.954 1.95 5.651 4.51 8.074 7.542v106.614h26.112zM397.253 137.043c-3.131 0-5.297-0.847-6.577-2.599-0.925-1.3-2.048-4.332-2.048-10.89v-11.224h17.113v11.224c0 6.459-1.201 9.491-2.166 10.949-1.221 1.713-3.308 2.541-6.321 2.541zM297.039 136.492c-1.221-0.611-2.442-1.536-3.702-2.836v-85.091c1.575-1.615 3.111-2.796 4.529-3.525 1.595-0.788 3.21-1.182 4.962-1.182 3.328 0 4.352 1.32 4.667 1.792 0.808 1.024 1.713 3.171 1.713 7.818v72.507c0 4.037-0.748 7.149-2.186 9.058-1.91 2.599-5.691 3.603-9.984 1.457zM468.224 193.659c0 33.91-27.845 61.421-62.090 61.421-48.935 2.048-99.053 2.934-150.193 2.875-51.102 0.059-101.219-0.827-150.193-2.875-34.245 0-62.070-27.51-62.070-61.421-2.048-26.821-2.974-53.701-2.895-80.581-0.079-26.841 0.847-53.721 2.914-80.581 0-33.95 27.806-61.459 62.051-61.459 48.975-2.029 99.091-2.895 150.193-2.836 51.141-0.118 101.258 0.808 150.193 2.836 34.245 0 62.090 27.51 62.090 61.459 2.048 26.861 2.993 53.74 2.875 80.581 0.138 26.88-0.808 53.76-2.875 80.581zM136.901 20.642c0-1.615-1.32-2.954-2.954-2.954h-29.4c-1.635 0-2.954 1.339-2.954 2.954v159.784h-27.451c-1.635 0-2.954 1.32-2.954 2.934v27.569c0 1.635 1.32 2.954 2.954 2.954h90.23c1.635 0 2.954-1.32 2.954-2.954v-27.569c0-1.615-1.32-2.934-2.954-2.934h-27.471v-159.784zM241.526 20.642c0-1.615-1.32-2.954-2.954-2.954h-26.131c-1.635 0-2.954 1.339-2.954 2.954v7.976c-3.486-3.387-6.971-6.065-10.595-8.113-5.691-3.269-11.126-4.864-16.64-4.864-6.991 0-12.387 2.541-16.010 7.503-3.427 4.687-5.179 11.618-5.179 20.579v117.346c0 1.615 1.32 2.934 2.954 2.934h26.131c1.635 0 2.954-1.32 2.954-2.934v-107.618c0-3.545 0.65-4.982 1.043-5.534 0.177-0.236 0.709-0.965 2.934-0.965 0.749 0 2.481 0.315 5.573 2.422 2.52 1.693 4.785 3.741 6.794 6.163v105.512c0 1.615 1.32 2.934 2.954 2.934h26.131c1.635 0 2.954-1.32 2.954-2.934v-140.426h0.040zM342.016 49.728c0-10.654-2.284-18.983-6.794-24.753-4.667-6.046-11.421-9.078-20.067-9.078-5.474 0-10.515 1.142-15.005 3.387-2.383 1.221-4.687 2.796-6.873 4.726v-3.387c0-1.654-1.32-2.954-2.954-2.954h-26.349c-1.635 0-2.954 1.3-2.954 2.954v190.346c0 1.635 1.32 2.934 2.954 2.934h26.349c1.635 0 2.954-1.32 2.954-2.934v-53.839c2.147 1.969 4.45 3.623 6.774 4.962 4.47 2.481 9 3.702 13.529 3.702 9.216 0 16.384-3.446 21.307-10.24 4.707-6.518 7.089-15.951 7.089-27.983l0.039-77.844zM438.548 87.517c0-1.635-1.32-2.954-2.954-2.954h-46.966v-23.493c0-8.586 1.182-12.229 2.107-13.765 0.768-1.26 2.186-2.875 6.282-2.875 3.308 0 5.553 0.788 6.715 2.363 0.531 0.827 2.009 4.057 2.009 14.336v9.767c0 1.654 1.32 2.954 2.954 2.954h26.861c1.635 0 2.934-1.3 2.934-2.954v-10.536c0-15.144-3.584-26.723-10.575-34.541-7.030-7.857-17.644-11.894-31.547-11.894-12.524 0-22.567 4.273-29.853 12.623-7.149 8.271-10.811 19.613-10.811 33.812v63.035c0 12.899 3.998 23.611 11.894 31.803 7.897 8.231 18.294 12.426 30.76 12.426 12.76 0 22.764-3.919 29.736-11.618 6.912-7.661 10.378-18.609 10.378-32.611v-35.84h0.079z" />
</font>
</defs>
</svg>
